Торрент файл
скачать торрент магнет ссылка Добавлен: 08 май 2013, 12:54
Размер: 1.68 ГБ
Сидеров: 0
Личеров: 4
Автор

СообщениеДобавлено: 08 май 2013, 12:54 

Не в сети
Дата регистрации:
30 дек 2012, 18:57
Спасибо: 3 / 0
Сообщения: 17
Техасская резня бензопилой 3D / Texas Chainsaw 3D



Год выпуска: 2013
Страна: USA
Жанр: Ужасы
Продолжительность: 01:32:01
Перевод: Профессиональный (полное дублирование)[Звук С CamRip] перевод не полный!+субтитры[Перевод Kardash_Vladislav]

Режиссер: Джон Льюсенхоп

В ролях: Александра Даддарио, Дэн Йеджер, Трей Сонгз, Скотт Иствуд, Таня Рэймонд, Шон Сайпос, Керам Малики-Санчес, Джеймс МакДональд, Том Бэрри, Пол Рэй

Описание: Местный шериф согласился организовать для Джеба Сойера, который и скрывался под Кожаным лицом, честный судебный процесс и предоставить ему адвоката. Однако его намерениям мешает мэр, который ведет за собой толпу людей, жаждущих линчевать кровавого маньяка. Когда ситуация начинает выходить из-под контроля, а горожане принимаются ладить петли для убийцы, кто-то бросает в дом Сойера бутылку с зажигательной смесью. Дом сгорает, а вместе с ним в огне гибнут и все, кто в нем находился, включая самого Джеба и его отца. Разумеется, спустя определенное время убийства с помощью бензопилы начинаются снова. Первое предположение шерифа Джеб Сойер выжил и решил отомстить. Но он ли это на самом деле? И если нет, то кто?


Доп. информация: Внимание Присутствуют субтитры с нецензурной лексикой

Качество: BDRip-AVC
Формат: AVI
Видео кодек: AVC
Аудио кодек: MP3
Видео: AVC,720 pixels*480 pixels(16:9),30.000 fps,4:2:0
Аудио: MP3 192 Kbps,2 ch,48.0 KHz
Semple

General
Complete name : C:\Texaskaja reznja 2013 Sub\Техаская_Резня Бензопилой_3D_Dub[CAMRip]+Sub[Rus]deadmauvlad.avi
Format : AVI
Format/Info : Audio Video Interleave
Format profile : OpenDML
File size : 1.68 GiB
Duration : 1h 32mn
Overall bit rate : 2 607 Kbps

Video
ID : 0
Format : AVC
Format/Info : Advanced Video Codec
Format profile : Baseline@L3.0
Format settings, CABAC : No
Format settings, ReFrames : 1 frame
Format settings, GOP : M=1, N=12
Codec ID : H264
Duration : 1h 32mn
Bit rate : 2 400 Kbps
Nominal bit rate : 3 000 Kbps
Width : 720 pixels
Height : 480 pixels
Display aspect ratio : 16:9
Frame rate : 30.000 fps
Standard : NTSC
Color space : YUV
Chroma subsampling : 4:2:0
Bit depth : 8 bits
Scan type : Progressive
Bits/(Pixel*Frame) : 0.231
Stream size : 1.54 GiB (92%)
Writing library : x264 core 77
Encoding settings : cabac=0 / ref=1 / deblock=0:0:0 / analyse=0x1:0 / me=dia / subme=8 / psy=1 / psy_rd=1.0:0.0 / mixed_ref=0 / me_range=16 / chroma_me=0 / trellis=0 / 8x8dct=0 / cqm=0 / deadzone=21,11 / chroma_qp_offset=-2 / threads=2 / nr=0 / decimate=1 / mbaff=0 / constrained_intra=0 / bframes=0 / keyint=12 / keyint_min=7 / scenecut=0 / rc_lookahead=12 / rc=abr / mbtree=1 / bitrate=3000 / ratetol=1.0 / qcomp=0.60 / qpmin=10 / qpmax=51 / qpstep=4 / ip_ratio=1.41 / aq=1:1.00

Audio
ID : 1
Format : MPEG Audio
Format version : Version 1
Format profile : Layer 3
Mode : Joint stereo
Mode extension : MS Stereo
Codec ID : 55
Codec ID/Hint : MP3
Duration : 1h 32mn
Bit rate mode : Constant
Bit rate : 192 Kbps
Channel(s) : 2 channels
Sampling rate : 48.0 KHz
Compression mode : Lossy
Stream size : 126 MiB (7%)
Alignment : Aligned on interleaves
Interleave, duration : 24 ms (0.72 video frame)
Interleave, preload duration : 72 ms







Последний раз редактировалось deadmauVlad 08 май 2013, 15:29, всего редактировалось 2 раз(а).


реклама партнёра


Вернуться к началу
 Профиль Отправить личное сообщение  
 
   Похожие торренты   Автор   Торрент   Размер 
В этой теме нет новых непрочитанных сообщений. Техасская резня бензопилой 3D / Texas Chainsaw 3D [Ужасы, Триллер, 2013] BDRip 720p, Dub+Sub [Лицензия]

Dracon

0 | 2

4.97 ГБ

В этой теме нет новых непрочитанных сообщений. Техасская резня бензопилой 3D  / Texas Chainsaw 3D [Ужасы, Триллер, 2013] BDRip 1080p, Dub+Sub [Лицензия]

Dracon

3 | 2

8.53 ГБ

В этой теме нет новых непрочитанных сообщений. Техасская резня бензопилой / Texas Chainsaw [ужасы, триллер, детектив, 2013] HDRip, Dub [лицензия]

Dracon

5 | 4

1.37 ГБ

В этой теме нет новых непрочитанных сообщений. Техасская резня бензопилой: Начало / The Texas Chainsaw Massacre: The Beginnin [ужасы, триллер, 2006] BDRemux 1080p, Dub+Dvo+Sub

salma3

13 | 4

19.26 ГБ

В этой теме нет новых непрочитанных сообщений. Техасская резня бензопилой / The Texas Chainsaw Massacre [ужасы, 2003] BDRemux 1080p, Dub+Dvo+Sub

salma3

11 | 3

25.28 ГБ

В этой теме нет новых непрочитанных сообщений. Техасская резня бензопилой: Начало / The Texas Chainsaw Massacre: The Beginning [ужасы, 2006] BDRemux 1080р, Dvo [UNRATED]

salma3

25 | 17

17.99 ГБ

В этой теме нет новых непрочитанных сообщений. Техасская резня бензопилой: Кожаное лицо / Leatherface [ужасы, триллер, 2017] WEB-DLRip, Mvo

salma3

1740 | 234

1.37 ГБ


Начать новую тему Ответить на тему  [ 1 сообщение ] 




Для Мосгорсуда, Роскомнадзора и рекламодателей:: mosgorsud-torrent[собачка]yandex.ru