Торрент файл
скачать торрент магнет ссылка Добавлен: 05 май 2013, 15:52
Размер: 1.52 ГБ
Сидеров: 8
Личеров: 4
Статус: (salma3)
Автор

СообщениеДобавлено: 05 май 2013, 15:52 

Не в сети
Супермодератор
Аватара пользователя
Дата регистрации:
15 фев 2012, 16:44
Возраст: 27
Спасибо: 5135 / 2089
Сообщения: 17406

Последняя татуировка / The Last Tattoo

Страна: Новая Зеландия, США
Производство: Capella International, Plumb Productions
Жанр:Драма, мистика, мелодрама
Год выпуска: 1994
Продолжительность: 01:47:44
Перевод:Профессиональный [многоголосый закадровый]

Оригинальная аудиодорожка: Английская

Cубтитры: Нет
Режиссер: Джон Рейд
В ролях: Десмонд Келли, Кэти Вульф, Марк Рафетти, Джон Бах, Керри Фокс, Жак МакФерсон, Элизабет Хоторн, Питер Даубе, Эмили Перкинс, Даниэль Кормак, Стелла Рейд
Описание: 1943 год. 100.000 американских морских пехотинцев посланы в Новую Зеландию, чтобы отразить возможное вторжение японцев. Во время этой долгой и тяжелой войны американский офицер и медсестра из Новой Зеландии разыскивают загадочную девушку с татуировкой…



Исходник: DVD5 R5
Тип релиза: DVDRip
Контейнер: AVI
Видео:704x528 (1.33:1), 23.976 fps, XviD ~1617 kbps avg, 0.18 bit/pixel
Аудио: #1: 48 kHz, AC3 2.0 ~192.00 kbps avg (RUS)
Аудио: #2: 48 kHz, AC3 2.0 ~192.00 kbps avg (ENG)

Общее
Полное имя: D:1АААPoslednjja.tatuirovka.avi
Формат: AVI
Формат/Информация: Audio Video Interleave
Размер файла: 1,52 Гбайт
Продолжительность: 1 ч. 47 м.
Общий поток: 2016 Кбит/сек
Программа кодирования: VirtualDubMod 1.5.10.2 (build 2540/release)
Библиотека кодирования: VirtualDubMod build 2540/release

Видео
Идентификатор: 0
Формат: MPEG-4 Visual
Профиль формата: Advanced Simple@L5
Параметр BVOP формата: 2
Параметр QPel формата: Нет
Параметр GMC формата: Без точки перехода
Параметр матрицы формата: Default (MPEG)
Режим смешивания: Сжатый битовый поток
Идентификатор кодека: XVID
Идентификатор кодека/Подсказка: XviD
Продолжительность: 1 ч. 47 м.
Битрейт: 1618 Кбит/сек
Ширина: 704 пикселя
Высота: 528 пикселей
Соотношение сторон: 4:3
Частота кадров: 23,976 кадра/сек
Цветовое пространство: YUV
Субдискретизация насыщенности: 4:2:0
Битовая глубина: 8 бит
Тип развёртки: Прогрессивная
Метод сжатия: С потерями
Бит/(Пиксели*Кадры): 0.182
Размер потока: 1,22 Гбайт (80%)
Библиотека кодирования: XviD 1.2.1 (UTC 2008-12-04)

Аудио #1
Идентификатор: 1
Формат: AC-3
Формат/Информация: Audio Coding 3
Расширение режима: CM (complete main)
Параметр Endianness формата: Big
Идентификатор кодека: 2000
Продолжительность: 1 ч. 47 м.
Вид битрейта: Постоянный
Битрейт: 192 Кбит/сек
Каналы: 2 канала
Расположение каналов: Front: L R
Частота: 48,0 КГц
Битовая глубина: 16 бит
Метод сжатия: С потерями
Размер потока: 148 Мбайт (10%)
Выравнивание: Разделение по промежуткам
Продолжительность промежутка: 42мс. (1,00 видеокадр)
Время предзагрузки промежутка: 500мс.

Аудио #2
Идентификатор: 2
Формат: AC-3
Формат/Информация: Audio Coding 3
Расширение режима: CM (complete main)
Параметр Endianness формата: Big
Идентификатор кодека: 2000
Продолжительность: 1 ч. 47 м.
Вид битрейта: Постоянный
Битрейт: 192 Кбит/сек
Каналы: 2 канала
Расположение каналов: Front: L R
Частота: 48,0 КГц
Битовая глубина: 16 бит
Метод сжатия: С потерями
Размер потока: 148 Мбайт (10%)
Выравнивание: Разделение по промежуткам
Продолжительность промежутка: 42мс. (1,00 видеокадр)
Время предзагрузки промежутка: 500мс.



Релиз:




реклама партнёра


Вернуться к началу
 Профиль Отправить личное сообщение  
 
   Похожие торренты   Автор   Торрент   Размер 
В этой теме нет новых непрочитанных сообщений. Чернокнижник 3: Последняя битва / Warlock III: The End of Innocence [ужасы, триллер, мистика, 1999] DVDRip, Dvo

salma3

62 | 9

1.35 ГБ

В этой теме нет новых непрочитанных сообщений. Татуировка / Cyber Bandits [фантастика, триллер, криминал, 1995] DVDRip, Dvo

salma3

19 | 2

1.45 ГБ

В этой теме нет новых непрочитанных сообщений. Объект страсти / Object of Obsession [драма, мелодрама, 1994] DVDRip, Mvo

salma3

169 | 48

859.63 МБ

В этой теме нет новых непрочитанных сообщений. Вместо жены / The Substitute Wife [драма, мелодрама, вестерн, 1994] DVDRip, Mvo

salma3

31 | 9

1.49 ГБ

В этой теме нет новых непрочитанных сообщений. Убийства на радио / Radioland Murders [мюзикл, драма, мелодрама, 1994] DVDRip, Mvo

salma3

9 | 1

1.36 ГБ

В этой теме нет новых непрочитанных сообщений. Двойное пересечение / Double Cross [драма, мелодрама, триллер, 1994] DVDRip, Avo

salma3

54 | 2

1.37 ГБ

В этой теме нет новых непрочитанных сообщений. Принцесса Карабу / Princess Caraboo [Драма, мелодрама, комедия, детектив, 1994] DVDRip, Mvo

salma3

23 | 5

1.45 ГБ


Начать новую тему Ответить на тему  [ 1 сообщение ] 




Для Мосгорсуда, Роскомнадзора и рекламодателей:: mosgorsud-torrent[собачка]yandex.ru