Торрент файл
скачать торрент магнет ссылка Добавлен: 04 май 2013, 21:31
Размер: 2.18 ГБ
Сидеров: 13
Личеров: 2
Статус: (salma3)
Автор

СообщениеДобавлено: 04 май 2013, 21:31 

В сети
Супермодератор
Аватара пользователя
Дата регистрации:
15 фев 2012, 16:44
Возраст: 28
Спасибо: 6577 / 2142
Сообщения: 43850

Сильная женщина / Кататься на машинах с мальчиками / Riding In Cars with Boys

Год выхода: 2001
Жанр: драма, комедия, биография
Режиссер: Пенни Маршалл
В ролях:
Дрю Бэрримор,Стив Зан,Адам Гарсия,Бриттани Мерфи
Джеймс Вудс,Лоррейн Бракко,Рози Перес,Сара Гилберт,Питер Фачинелли,Мика Бурем


О фильме:
Беверли Донофрио была умной и амбициозной девушкой, жаждавшей сделать карьеру писательницы. Но путь к мечте оказался не близок. Увы, в нежном возрасте голоса бурлящих в крови гормонов заглушают голос разума: в пятнадцать лет она забеременела от милого, но совершенно неприспособленного к жизни друга Рэя.
Школьница с ребенком в шестнадцать, позже — жена наркомана и мать-одиночка, Беверли получила от судьбы, кажется, все мыслимые тычки и затрещины, расплачиваясь за ошибки молодости. Однако никакие горести не могли заставить ее опустить руки и потерять свое чувство юмора.
Энергичная, веселая и талантливая, несмотря на все трудности героиня добилась своего: вырастила сына и написала книгу, ту, по которой поставлен этот удивительный фильм…



Страна: США
Студия: Columbia/Sony
Продолжительность: 02:05:57
Перевод: Профессиональный (многоголосый, закадровый)

Файл
Кодек: XviD
Качество: DVDRip
Видео: 720x384 (1.88:1), 25 fps, 1575 kbps, 0.23 bit/pixel
Звук:
Аудио: 48 kHz AC3 Dolby Digital 3/2 (L,C,R,l,r) + LFE ch 448.00 kbps avg RUS
Аудио: 48 kHz AC3 Dolby Digital 3/2 (L,C,R,l,r) + LFE ch 448.00 kbps avg ENG
Субтитры: нет

Семпл


D:видеоSilnaya genchina.avi
General
Complete name : D:видеоSilnaya genchina.avi
Format : AVI
Format/Info : Audio Video Interleave
Format profile : OpenDML
Format settings : rec
File size : 2.18 GiB
Duration : 2h 5mn
Overall bit rate : 2 478 Kbps
Writing application : AVI-Mux GUI 1.17.8, Aug 30 200812:36:58
Video #0
ID : 0
Format : MPEG-4 Visual
Format profile : Advanced Simple@L5
Format settings, BVOP : 1
Format settings, QPel : No
Format settings, GMC : No warppoints
Format settings, Matrix : Default (H.263)
Codec ID : XVID
Codec ID/Hint : XviD
Duration : 2h 5mn
Bit rate : 1 575 Kbps
Width : 720 pixels
Height : 384 pixels
Display aspect ratio : 1.85:1
Frame rate : 25.000 fps
Color space : YUV
Chroma subsampling : 4:2:0
Bit depth : 8 bits
Scan type : Progressive
Compression mode : Lossy
Bits/(Pixel*Frame) : 0.228
Stream size : 1.39 GiB (64%)
Writing library : XviD 1.2.1 (UTC 2008-12-04)
Audio #1
ID : 1
Format : AC-3
Format/Info : Audio Coding 3
Codec ID : 2000
Duration : 2h 5mn
Bit rate mode : Constant
Bit rate : 448 Kbps
Channel(s) : 6 channels
Sampling rate : 48.0 KHz
Compression mode : Lossy
Stream size : 404 MiB (18%)
Alignment : Aligned on interleaves
Title : RIDI T81 3_2ch 448Kbps DELAY 0ms
Audio #2
ID : 2
Format : AC-3
Format/Info : Audio Coding 3
Codec ID : 2000
Duration : 2h 5mn
Bit rate mode : Constant
Bit rate : 448 Kbps
Channel(s) : 6 channels
Sampling rate : 48.0 KHz
Compression mode : Lossy
Stream size : 404 MiB (18%)
Alignment : Aligned on interleaves
Title : RIDI T80 3_2ch 448Kbps DELAY 0ms

Это фильм о жизни. Такой, как она есть. Такая вот она, эта жизнь — непредсказуемая, все время преподносящая сюрпризы и часто не совсем приятные. «Закон Подлости» никто не отменял. Ошибки прошлого генерируют ошибки будущего. Но всегда есть выбор. Необходимо стремление плыть, борясь с волнами, обходя препятствия. Плыть к своей мечте.
Именно такие фильмы и следует показывать молодежи. Не о свихнувшейся на почве секса молодежи, а о том, какие могут последствия от приступов «внезапной страсти на сиднем сидении автомобиля». О том, что поступок, который ты совершил по наивности юношеской, может наложить отпечаток на всю твою дальнейшую жизнь, о том, что это может разбить твои самые заветные мечты. Этот фильм может заставить задуматься.

Скажу сразу: «Сильная женщина» — мой самый любимый фильм.
Это кино не просто о «залетевшей» школьнице, это история жизни обычной девчонки, мечтающей стать писательницей, добиться успеха, показать все свои таланты. И в один миг все меняется — девушка забеременела. У нее консервативные родители и непутевый бойфренд. Здесь нужно оставить мечты и бороться с проблемами. Но Беверли, главная героиня не только фильма, но и автобиографического романа, не сдается!
Шикарно сыграли все — и Берримор, и Зан, и даже не очень любимая мною Бриттани Мерфи… Лично мне показалось, что актеры подобраны идеально.




реклама партнёра


Вернуться к началу
 Профиль Отправить личное сообщение  
 
   Похожие торренты   Автор   Торрент   Размер 
В этой теме нет новых непрочитанных сообщений. Настоящая женщина / True Women [драма, мелодрама, вестерн, военный, биография, история, 1997] DVDRip, Mvo

salma3

31 | 5

1.37 ГБ

В этой теме нет новых непрочитанных сообщений. Парни не плачут / Boys Don't Cry [драма, биография, 1999] HDRip, Mvo

salma3

25 | 6

1.45 ГБ

В этой теме нет новых непрочитанных сообщений. Парни из Джерси / Jersey Boys (Клинт Иствуд) [драма, биография, музыка, 2014] BDRip-AVC, Mvo

Dracon

66 | 7

2.28 ГБ

В этой теме нет новых непрочитанных сообщений. Парни из Джерси / Jersey Boys (Клинт Иствуд) [драма, биография, музыка, 2014] BDRemux 1080p, Mvo

Dracon

33 | 34

30.4 ГБ

В этой теме нет новых непрочитанных сообщений. Мальчишник / Между нами мальчиками / A Guy Thing (Крис Кох / Chris Koch) [2003г., мелодрама, комедия, BDRip-AVC] MVO

Alfredovich

36 | 7

2.9 ГБ

В этой теме нет новых непрочитанных сообщений. Невидимая женщина / The Invisible Woman (Рэйф Файнс) [драма, мелодрама, биография, история, 2013] HDRip, Mvo

Dracon

6 | 2

2.04 ГБ

В этой теме нет новых непрочитанных сообщений. Мужчина и женщина / Raja Jani [драма, мелодрама, комедия, 2013] DVDRip, Mvo

salma3

10 | 5

1.42 ГБ


Начать новую тему Ответить на тему  [ 1 сообщение ] 




Для Мосгорсуда, Роскомнадзора и рекламодателей:: mosgorsud-torrent[собачка]yandex.ru