Торрент файл
скачать торрент магнет ссылка Добавлен: 04 май 2013, 15:47
Размер: 2.12 ГБ
Сидеров: 8
Личеров: 5
Статус: (salma3)
Автор

СообщениеДобавлено: 04 май 2013, 15:47 

Не в сети
Супермодератор
Аватара пользователя
Дата регистрации:
15 фев 2012, 16:44
Возраст: 28
Спасибо: 6589 / 2145
Сообщения: 44145

Дочь солдата никогда не плачет / A Soldier`s Daughter Never Cries

Страна:Франция, Великобритания, США
Производство: Capitol Films , Merchant Ivory Productions , British Screen Productions
Жанр:Драма
Год выпуска: 1998

Продолжительность:02:01:37
Перевод: Профессиональный [многоголосый], [авторский одноголосый]

Оригинальная аудиодорожка: Английская

Cубтитры: Нет
Режиссер: Джеймс Айвори
В ролях: Крис Кристофферсон, Лили Собески, Джейн Биркин, Джесс Брэдфорд, Исаак де Банколе, Натали Ришар, Виржини Ледуайен, Маша Мериль, Барбара Херши, Доминик Блан

Описание: С раннего детства Шанни Уиллис окружали достойные мужчины. Может, ей просто повезло, и поэтому до определенного момента контакты с представителями противоположного пола не вызывали у нее опасений. Взросление Шанни совпало с возвращением их семьи из Европы в Штаты, где раскованность и открытость в отношениях с юношами приводит ее в первый жизненный тупик. Оказалось, что пришло время обдуманных поступков, что не все могут сравниться с ее отцом, любовь к которому она понесет через всю жизнь…



Исходник: DVD9 R5
Тип релиза: DVDRip
Контейнер: AVI
Видео: 720x400(1.80:1)23.976 fps, XviD ~1204 kbps avg, 0.17 bit/pixel
Аудио:#1: 48 kHz, AC3 2.0 ~192.00 kbps avg (RUS)
Аудио:#2: 48 kHz, AC3 2.0 ~192.00 kbps avg (RUS)
Аудио:#3: 48 kHz, AC3 6.0 ~448.00 kbps avg (ENG)
Аудио:#3: 48 kHz, AC3 6.0 ~448.00 kbps avg (POL)
Общее
Полное имя: D:1АААдочь солдата.avi
Формат: AVI
Формат/Информация: Audio Video Interleave
Профиль формата: OpenDML
Размер файла: 2,12 Гбайт
Продолжительность: 2 ч. 1 м.
Общий поток: 2492 Кбит/сек
Программа кодирования: VirtualDubMod 1.5.10.2 (build 2540/release)
Библиотека кодирования: VirtualDubMod build 2540/release

Видео
Идентификатор: 0
Формат: MPEG-4 Visual
Профиль формата: Advanced Simple@L5
Параметр BVOP формата: 2
Параметр QPel формата: Нет
Параметр GMC формата: Без точки перехода
Параметр матрицы формата: Default (MPEG)
Режим смешивания: Сжатый битовый поток
Идентификатор кодека: XVID
Идентификатор кодека/Подсказка: XviD
Продолжительность: 2 ч. 1 м.
Битрейт: 1181 Кбит/сек
Ширина: 720 пикселей
Высота: 400 пикселей
Соотношение сторон: 16:9
Частота кадров: 23,976 кадра/сек
Цветовое пространство: YUV
Субдискретизация насыщенности: 4:2:0
Битовая глубина: 8 бит
Тип развёртки: Прогрессивная
Метод сжатия: С потерями
Бит/(Пиксели*Кадры): 0.171
Размер потока: 1,00 Гбайт (47%)
Библиотека кодирования: XviD 1.2.1 (UTC 2008-12-04)

Аудио #1
Идентификатор: 1
Формат: AC-3
Формат/Информация: Audio Coding 3
Расширение режима: CM (complete main)
Параметр Endianness формата: Big
Идентификатор кодека: 2000
Продолжительность: 2 ч. 1 м.
Вид битрейта: Постоянный
Битрейт: 192 Кбит/сек
Каналы: 2 канала
Расположение каналов: Front: L R
Частота: 48,0 КГц
Битовая глубина: 16 бит
Метод сжатия: С потерями
Размер потока: 167 Мбайт (8%)
Выравнивание: Разделение по промежуткам
Продолжительность промежутка: 42мс. (1,00 видеокадр)
Время предзагрузки промежутка: 500мс.

Аудио #2
Идентификатор: 2
Формат: AC-3
Формат/Информация: Audio Coding 3
Расширение режима: CM (complete main)
Параметр Endianness формата: Big
Идентификатор кодека: 2000
Продолжительность: 2 ч. 1 м.
Вид битрейта: Постоянный
Битрейт: 192 Кбит/сек
Каналы: 2 канала
Расположение каналов: Front: L R
Частота: 48,0 КГц
Битовая глубина: 16 бит
Метод сжатия: С потерями
Размер потока: 167 Мбайт (8%)
Выравнивание: Разделение по промежуткам
Продолжительность промежутка: 42мс. (1,00 видеокадр)
Время предзагрузки промежутка: 500мс.

Аудио #3
Идентификатор: 3
Формат: AC-3
Формат/Информация: Audio Coding 3
Расширение режима: CM (complete main)
Параметр Endianness формата: Big
Идентификатор кодека: 2000
Продолжительность: 2 ч. 1 м.
Вид битрейта: Постоянный
Битрейт: 448 Кбит/сек
Каналы: 6 каналов
Расположение каналов: Front: L C R, Side: L R, LFE
Частота: 48,0 КГц
Битовая глубина: 16 бит
Метод сжатия: С потерями
Размер потока: 390 Мбайт (18%)
Выравнивание: Разделение по промежуткам
Продолжительность промежутка: 42мс. (1,00 видеокадр)
Время предзагрузки промежутка: 500мс.

Аудио #4
Идентификатор: 4
Формат: AC-3
Формат/Информация: Audio Coding 3
Расширение режима: CM (complete main)
Параметр Endianness формата: Big
Идентификатор кодека: 2000
Продолжительность: 2 ч. 1 м.
Вид битрейта: Постоянный
Битрейт: 448 Кбит/сек
Каналы: 6 каналов
Расположение каналов: Front: L C R, Side: L R, LFE
Частота: 48,0 КГц
Битовая глубина: 16 бит
Метод сжатия: С потерями
Размер потока: 390 Мбайт (18%)
Выравнивание: Разделение по промежуткам
Продолжительность промежутка: 42мс. (1,00 видеокадр)
Время предзагрузки промежутка: 500мс.




Релиз:




реклама партнёра


Вернуться к началу
 Профиль Отправить личное сообщение  
 
   Похожие торренты   Автор   Торрент   Размер 
В этой теме нет новых непрочитанных сообщений. Донато и дочь / Donato and Daughter [боевик, драма, криминал, 1993] DVDRip, Avo

salma3

9 | 3

1.35 ГБ

В этой теме нет новых непрочитанных сообщений. Дочь / The Daughter [драма, 2015] WEB-DLRip, Mvo

salma3

701 | 41

1.37 ГБ

В этой теме нет новых непрочитанных сообщений. Дочь / The Daughter [драма, 2015] WEB-DL 720p, Mvo

salma3

87 | 42

3 ГБ

В этой теме нет новых непрочитанных сообщений. Дочь / Daughter (Ку Хе Сон / Ku Hye-sun) [2014г., Южная Корея, драма, HDRip-AVC] DVO

Alfredovich

4 | 0

1.84 ГБ

В этой теме нет новых непрочитанных сообщений. Я Хочу Трахнуть Вашу Дочь В Попу 18 / I Wanna Buttfuck Your Daughter 18 (2015) DVDRip

salma3

4 | 1

1.32 ГБ

В этой теме нет новых непрочитанных сообщений. The Preacher's Daughter / Дочь проповедника (Brad Armstrong, Wicked Pictures) [2016 г., Feature, Couples, All Sex, Gonzo, Anal, Oral, Lesbian, DVDRip]

max77777

1 | 1

1.37 ГБ

В этой теме нет новых непрочитанных сообщений. Моя дочь пропала / My Daughter Is Missing [триллер, 2017] HDTVRip, Mvo

salma3

207 | 84

1.37 ГБ


Начать новую тему Ответить на тему  [ 1 сообщение ] 




Для Мосгорсуда, Роскомнадзора и рекламодателей:: mosgorsud-torrent[собачка]yandex.ru