Торрент файл
скачать торрент магнет ссылка Добавлен: 02 май 2013, 14:15
Размер: 1.46 ГБ
Сидеров: 2
Личеров: 3
Статус: (salma3)
Автор

СообщениеДобавлено: 02 май 2013, 14:15 

В сети
Супермодератор
Аватара пользователя
Дата регистрации:
15 фев 2012, 16:44
Возраст: 27
Спасибо: 5139 / 2089
Сообщения: 17411

Страна: США
Жанр:ужасы, фантастика, боевик, триллер
Год выпуска: 1988
Продолжительность: 01:36:38
Перевод: Профессиональный (многоголосый, закадровый)
Субтитры: нет

Режиссер: Дон Коскарелли / Don Coscarelli

В ролях: Джеймс ЛеГрос, Рэджи Бэннистер, Энгус Скримм, Паула Ирвин, Саманта Филлипс, Кеннет Тайгар, Рут С. Энджел, Марк Энтони Мейджор, Рубин Кушнер, Стэйси Трэвис, Дж. Патрик МакНамара, А. Майкл Болдуин

Описание: «Верзила» возвращается! Смертельным вихрем мчится он по Западу США, окруженный на сей раз целым легионом Серебряных Сфер и демонов, ставших еще быстрее и опаснее.
Только его противники, Майк и Реджи, способны сполна оценить угрозу, исходящую от зловещего мертвеца. Приняв в свою команду ясновидящую красавицу Лиз, друзья решают навеки покончить с «Верзилой». Если он не уничтожит их раньше...

Качество: HDRip
Контейнер: AVI
Видео кодек: XviD
Аудио кодек: AC3
Видео: 704x384 (1.83:1), 23.976 fps, XviD build 50 ~1704 kbps avg, 0.26 bit/pixel
Аудио: 48 kHz, AC3 Dolby Digital, 3/2 (L,C,R,l,r) + LFE ch, ~448 kbps


Сэмпл

D:Phantasm.II.1988.HDRip 1.45 [YTN] by dexter lex.avi
General
Complete name : D:Phantasm.II.1988.HDRip 1.45 [YTN] by dexter lex.avi
Format : AVI
Format/Info : Audio Video Interleave
File size : 1.46 GiB
Duration : 1h 36mn
Overall bit rate : 2 160 Kbps
Writing application : VirtualDubMod 1.5.10.3 | http://www.virtualdub-fr.org || (build 2550/release)
Writing library : VirtualDubMod build 2550/release
Video #0
ID : 0
Format : MPEG-4 Visual
Format profile : Advanced Simple@L5
Format settings, BVOP : 1
Format settings, QPel : No
Format settings, GMC : No warppoints
Format settings, Matrix : Custom
Codec ID : XVID
Codec ID/Hint : XviD
Duration : 1h 36mn
Bit rate : 1 704 Kbps
Width : 704 pixels
Height : 384 pixels
Display aspect ratio : 1.83:1
Frame rate : 23.976 fps
Color space : YUV
Chroma subsampling : 4:2:0
Bit depth : 8 bits
Scan type : Progressive
Compression mode : Lossy
Bits/(Pixel*Frame) : 0.263
Stream size : 1.15 GiB (79%)
Writing library : XviD 1.2.1 (UTC 2008-12-04)
Audio #1
ID : 1
Format : AC-3
Format/Info : Audio Coding 3
Mode extension : CM (complete main)
Format settings, Endianness : Big
Codec ID : 2000
Duration : 1h 36mn
Bit rate mode : Constant
Bit rate : 448 Kbps
Channel(s) : 6 channels
Channel positions : Front: L C R, Side: L R, LFE
Sampling rate : 48.0 KHz
Bit depth : 16 bits
Compression mode : Lossy
Stream size : 309 MiB (21%)
Alignment : Split accross interleaves
Interleave, duration : 42 ms (1.00 video frame)
Interleave, preload duration : 500 ms


Раздача от:




реклама партнёра


Вернуться к началу
 Профиль Отправить личное сообщение  
 
   Похожие торренты   Автор   Торрент   Размер 
В этой теме нет новых непрочитанных сообщений. Фантазм 5 / Phantasm: Ravager [ужасы, фэнтези, 2016] WEB-DLRip, Avo

marya111

156 | 20

1.46 ГБ

В этой теме нет новых непрочитанных сообщений. Фантазм 5 / Phantasm: Ravager [ужасы, фэнтези, 2016] WEB-DLRip 1080р, Avo

marya111

976 | 54

3.55 ГБ

В этой теме нет новых непрочитанных сообщений. Чужие среди нас / They Live [ужасы, фантастика, боевик, триллер, 1988] BDRip, Mvo

salma3

12 | 2

1.45 ГБ

В этой теме нет новых непрочитанных сообщений. Смертельная ярость / Dead Heat [ужасы, фантастика, боевик, комедия, 1988] Blu-ray, Mvo+4Avo

salma3

10 | 6

14.69 ГБ

В этой теме нет новых непрочитанных сообщений. Боевые псы / Battledogs [Ужасы, фантастика, боевик, триллер, 2013] HDRip, Mvo

Dracon

219 | 9

1.37 ГБ

В этой теме нет новых непрочитанных сообщений. Ярость зверя / Rage, furia primitiva [ужасы, фантастика, триллер, 1988] DVDRip, Avo

salma3

23 | 5

1.49 ГБ

В этой теме нет новых непрочитанных сообщений. Обезьяна-убийца / Monkey Shines [ужасы, фантастика, триллер, драма, 1988] BDRip 720p, Dvo

salma3

13 | 3

4.5 ГБ


Начать новую тему Ответить на тему  [ 1 сообщение ] 




Для Мосгорсуда, Роскомнадзора и рекламодателей:: mosgorsud-torrent[собачка]yandex.ru