Торрент файл
скачать торрент магнет ссылка Добавлен: 02 май 2013, 14:08
Размер: 1.25 ГБ
Сидеров: 5
Личеров: 4
Автор

СообщениеДобавлено: 02 май 2013, 14:08 

Не в сети
Супермодератор
Аватара пользователя
Дата регистрации:
15 фев 2012, 16:44
Возраст: 27
Спасибо: 5139 / 2089
Сообщения: 17411

Страна: США
Производство: Walt Disney Productions
Жанр:Комедия
Год выпуска: 1973
Продолжительность:01:35:12
Перевод: Авторский одноголосый
Оригинальная аудиодорожка: Английская

Cубтитры: Нет
Режиссер:Винсент МакЭвити
В ролях: Боб Крэйн, Курт Рассел, Барбара Раш, Джо Флинн, Кэтлин Коуди, Джоби Бэйкер, Дик Ван Пэттен, Бруно Кёрби, Джудит Лоури, Айвор Френсис


Описание: Недовольный компанией, с которой водится его дочь Венди, Чарли МакКрэди решает разлучить старых друзей. Узнав, что все они после школы собираются поступать в один и тот же колледж, Чарли специально делает так, чтобы его дочь поступила в другое учебное заведение. Однако Венди вскоре узнаёт о его проделках и решает назло отцу начать встречаться с парнем-хиппи.


Исходник: DVD5 R5
Тип релиза: DVDRip
Контейнер: AVI
Видео: 640x480 (1.33:1), 23.976 fps, XviD ~1477 kbps avg, 0.20 bit/pixel
Аудио #1: 48 kHz, AC3 2.0 ~192.00 kbps avg (RUS)
Аудио #2: 48 kHz, AC3 2.0 ~192.00 kbps avg (ENG)

Общее
Полное имя: D:1АААСуперпапа (1973).avi
Формат: AVI
Формат/Информация: Audio Video Interleave
Размер файла: 1,25 Гбайт
Продолжительность: 1 ч. 35 м.
Общий поток: 1877 Кбит/сек
Программа кодирования: VirtualDubModRus 1.5.10.2 (build 2542/release)
Библиотека кодирования: VirtualDubMod build 2542/release

Видео
Идентификатор: 0
Формат: MPEG-4 Visual
Профиль формата: Advanced Simple@L5
Параметр BVOP формата: 1
Параметр QPel формата: Нет
Параметр GMC формата: Без точки перехода
Параметр матрицы формата: Выборочная
Идентификатор кодека: XVID
Идентификатор кодека/Подсказка: XviD
Продолжительность: 1 ч. 35 м.
Битрейт: 1478 Кбит/сек
Ширина: 640 пикселей
Высота: 480 пикселей
Соотношение сторон: 4:3
Частота кадров: 23,976 кадра/сек
Цветовое пространство: YUV
Субдискретизация насыщенности: 4:2:0
Битовая глубина: 8 бит
Тип развёртки: Прогрессивная
Метод сжатия: С потерями
Бит/(Пиксели*Кадры): 0.201
Размер потока: 1007 Мбайт (79%)
Библиотека кодирования: XviD 1.1.2 (UTC 2006-11-01)

Аудио #1
Идентификатор: 1
Формат: AC-3
Формат/Информация: Audio Coding 3
Расширение режима: CM (complete main)
Параметр Endianness формата: Big
Идентификатор кодека: 2000
Продолжительность: 1 ч. 35 м.
Вид битрейта: Постоянный
Битрейт: 192 Кбит/сек
Каналы: 2 канала
Расположение каналов: Front: L R
Частота: 48,0 КГц
Битовая глубина: 16 бит
Метод сжатия: С потерями
Размер потока: 131 Мбайт (10%)
Выравнивание: Разделение по промежуткам
Продолжительность промежутка: 42мс. (1,00 видеокадр)
Время предзагрузки промежутка: 500мс.

Аудио #2
Идентификатор: 2
Формат: AC-3
Формат/Информация: Audio Coding 3
Расширение режима: CM (complete main)
Параметр Endianness формата: Big
Идентификатор кодека: 2000
Продолжительность: 1 ч. 35 м.
Вид битрейта: Постоянный
Битрейт: 192 Кбит/сек
Каналы: 2 канала
Расположение каналов: Front: L R
Частота: 48,0 КГц
Битовая глубина: 16 бит
Метод сжатия: С потерями
Размер потока: 131 Мбайт (10%)
Выравнивание: Разделение по промежуткам
Продолжительность промежутка: 42мс. (1,00 видеокадр)
Время предзагрузки промежутка: 500мс.



Релиз: chumak0191




реклама партнёра


Вернуться к началу
 Профиль Отправить личное сообщение  
 
   Похожие торренты   Автор   Торрент   Размер 
В этой теме нет новых непрочитанных сообщений. Консьерж / Le Concierge [комедия, 1973] DVDRip, Dvo

salma3

12 | 2

1.48 ГБ

В этой теме нет новых непрочитанных сообщений. Дипломатический багаж / La Valise [комедия, приключения, 1973] DVDRip, Mvo

salma3

17 | 3

1.31 ГБ

В этой теме нет новых непрочитанных сообщений. Девочки из группы поддержки / The Cheerleaders [Комедия, 1973] DVDRip, Avo

salma3

63 | 2

1.37 ГБ

В этой теме нет новых непрочитанных сообщений. Все сыновья крестной матери / Tutti figli di Mammasantissima [комедия, криминал, 1973] DVDRip, Avo

salma3

13 | 2

1.37 ГБ

В этой теме нет новых непрочитанных сообщений. Трупы детям не игрушка / Children Shouldn't Play with Dead Things [ужасы, комедия, 1973] DVDRip, Avo

salma3

34 | 2

1.46 ГБ

В этой теме нет новых непрочитанных сообщений. Несколько слишком спокойных господ / Quelques messieurs trop tranquilles [комедия, криминал, детектив, 1973] DVDRip, Mvo

salma3

26 | 7

1.49 ГБ

В этой теме нет новых непрочитанных сообщений. Консьерж / Le concierge [комедия, 1973] SATRip, Dvo

salma3

47 | 3

693.16 МБ


Начать новую тему Ответить на тему  [ 1 сообщение ] 




Для Мосгорсуда, Роскомнадзора и рекламодателей:: mosgorsud-torrent[собачка]yandex.ru