Торрент файл
скачать торрент магнет ссылка Добавлен: 01 май 2013, 07:36
Размер: 1.57 ГБ
Сидеров: 46
Личеров: 12
Автор

СообщениеДобавлено: 01 май 2013, 07:39 

Не в сети
Дата регистрации:
30 дек 2012, 18:57
Спасибо: 3 / 0
Сообщения: 17
Искатели Могил 1-2 / Grave Encounters 1-2
(Дилогия)


Искатели могил


Год выпуска: 2011
Страна: Канада / Digital Interference Productions, Twin Engine Films
Жанр: Ужасы, триллер
Продолжительность 01:33:33
Перевод: Профессиональное (многоголосое) [лицензия]
Субтитры нет
Режиссер: Братья Вишес / The Vicious Brothers
В ролях: Шон Роджерсон/Sean Rogerson , Хуан Ридингер / Juan Ridinger , Маккензи Грэй/Mackenzie Gray , Артур Корбер/ Arthur Korber, Мишель Камминс / Michele Cummins , Луис Хавьер / Luis Javier, Шоун Макдональд / Shawn Macdonald, Мервин Мондесер / Merwin Mondeser , Боб Рафи / Bob Rafi
О фильме: «В марте 2003 года операторы реалити-шоу снимали сюжет в заброшенной психиатрической больнице, они искали доказательства существования жизни после смерти... и они нашли их»
Kinopoisk
Качество: HDRip-AVC | Исходник: BDRip 720
Формат: MKV
Видео: 720x400;(16:9) 24,000 fps; 1 195 kbps; 0.151 bit/pixel
Аудио:MP3.2 ch.128 Kbps.44.1 KHz Rus
Автор рипа: deadmauVlad
Sample
Субтитры Нет







General
Unique ID : 168348648403719580577546155723716462494 (0x7EA6C532C2870C1E037BA147C20E879E)
Complete name : E:\Фильмы\Iskateli Mogil 1-2 HDRip by R.G ZooLoRD's (deadmauVlad & paschukay)\Iskateli.mogil.2011.800Mb R.G ZooLoRD's (deadmauVlad & paschukay).mkv
Format : Matroska
Format version : Version 2
File size : 800 MiB
Duration : 1h 33mn
Overall bit rate : 1 195 Kbps
Writing application : Lavf51.12.1
Writing library : Lavf51.12.1
Video
ID : 1
Format : AVC
Format/Info : Advanced Video Codec
Format profile : Baseline@L1.3
Format settings, CABAC : No
Format settings, ReFrames : 1 frame
Format settings, GOP : M=1, N=12
Codec ID : V_MPEG4/ISO/AVC
Duration : 1h 33mn
Bit rate : 1 043 Kbps
Width : 720 pixels
Height : 400 pixels
Display aspect ratio : 16:9
Frame rate : 24.000 fps
Color space : YUV
Chroma subsampling : 4:2:0
Bit depth : 8 bits
Scan type : Progressive
Bits/(Pixel*Frame) : 0.151
Stream size : 698 MiB (87%)
Default : Yes
Forced : No
Audio
ID : 2
Format : MPEG Audio
Format version : Version 1
Format profile : Layer 3
Mode : Joint stereo
Mode extension : MS Stereo
Codec ID : A_MPEG/L3
Codec ID/Hint : MP3
Duration : 1h 33mn
Bit rate mode : Constant
Bit rate : 128 Kbps
Channel(s) : 2 channels
Sampling rate : 44.1 KHz
Compression mode : Lossy
Stream size : 85.7 MiB (11%)
Default : Yes
Forced : No



Искатели могил 2



Название: Искатели могил 2
Оригинальное название: Grave Encounters 2
Год выхода: 2012
Жанр: ужасы
Выпущено: Канада, США / Death Awaits Cinema, Twin Engine Films, Pink Buffalo Films
Продолжительность: 01:38:45
Озвучивание: Профессиональное (многоголосое) [лицензия]
Режиссер: Джон Поликуин / John Poliquin
В ролях: Риз Александр / Reese Alexander, Стефани Беннетт /Stephanie Bennett, Джеффри Бауэр-Чепман / , , Jeffrey Bowyer-Chapman, Ричард Хэрмон / Richard Harmon, Хоуи Лаи / Howie Lai, Лиэнн Лэпп /Leanne Lapp , Мишель Нил / Michelle Neal,, Шоун С. Филлипс / Shawn C. Phillips, Дилан Плэйфейр / Dylan Pleyfeyr, Шон Роджерсон / Sean Rogerson
О фильме: В руки к режиссёру-юнцу Алексу попадает фильм ужасов «Искатели могил». Кино не производит на него впечатления, но отношение Алекса меняется, когда ему анонимно присылают странный видеоролик, смахивающий на вырезанную сценку из «Искателей». Заинтересовавшись посланием, Алекс пытается найти создателей хитового ужастика. Тщетность этих попыток наталкивает парня на мысль, что снятое в «Искателях» произошло на самом деле, и авторы фильма мертвы. Продолжая расследование и получая новые доказательства своей теории, Алекс решается на последний шаг: он предлагает своим друзьям забраться в ту самую заброшенную психушку, где снимались «Искатели могил».
Sample
Файл
Формат: MKV
Качество:HDRip-AVC Исходник: BDRip 720
Видео: 1 145 kb/s, 624x352(16:9).23.976 fps
Аудио:MP3.2 ch.128 Kbps.44.1 KHz Rus
Субтитры Нет



Доп. информация: R.G ZooLoRD's (deadmauVlad & paschukay)
General Unique ID : 168348648403719580577546155723716462494 (0x7EA6C532C2870C1E037BA147C20E879E)
Complete name : E:\Фильмы\Iskateli Mogil 1-2 HDRip by R.G ZooLoRD's (deadmauVlad & paschukay)\Iskateli.mogil.2012.P.HDRip.810MB R.G ZooLoRD's (deadmauVlad & paschukay).mkv
Format : Matroska
Format version : Version 2
File size : 809 MiB
Duration : 1h 38mn
Overall bit rate : 1 145 Kbps
Writing application : Lavf51.12.1
Writing library : Lavf51.12.1
Video
ID : 1
Format : AVC
Format/Info : Advanced Video Codec
Format profile : Baseline@L1.3
Format settings, CABAC : No
Format settings, ReFrames : 1 frame
Format settings, GOP : M=1, N=12
Codec ID : V_MPEG4/ISO/AVC
Duration : 1h 38mn
Bit rate : 994 Kbps
Width : 624 pixels
Height : 352 pixels
Display aspect ratio : 16:9
Frame rate : 23.976 fps
Color space : YUV
Chroma subsampling : 4:2:0
Bit depth : 8 bits
Scan type : Progressive
Bits/(Pixel*Frame) : 0.189
Stream size : 702 MiB (87%)
Default : Yes
Forced : No
Audio
ID : 2
Format : MPEG Audio
Format version : Version 1
Format profile : Layer 3
Mode : Joint stereo
Mode extension : MS Stereo
Codec ID : A_MPEG/L3
Codec ID/Hint : MP3
Duration : 1h 38mn
Bit rate mode : Constant
Bit rate : 128 Kbps
Channel(s) : 2 channels
Sampling rate : 44.1 KHz
Compression mode : Lossy
Stream size : 90.4 MiB (11%)
Writing library : LAME3.97
Default : Yes
Forced : No

















реклама партнёра


Вернуться к началу
 Профиль Отправить личное сообщение  
 
   Похожие торренты   Автор   Торрент   Размер 
В этой теме нет новых непрочитанных сообщений. Как братья / Comme des freres / Just Like Brothers [комеди, 2012] HDRip, Avo

salma3

126 | 17

1.45 ГБ

В этой теме нет новых непрочитанных сообщений. Повторный Заклятие 2 / The Conjuring 2 (Ужасы, мистика, драма, 2016) BDRip 1080p от New-Team | Лицензия Данный торрент является блокированным, причина: повторный торрент

marya111

0 | 0

14.45 ГБ

В этой теме нет новых непрочитанных сообщений. Братья / Brothers [ Боевик, драма, спорт, 2015] HDRip-AVC, RUS SUB

msmara

11 | 1

2.24 ГБ

В этой теме нет новых непрочитанных сообщений. Право на бой / Братья / Brothers [Боевик, драма, спорт, 2015] HDRip, Mvo [SDI Media]

salma3

2831 | 184

1.46 ГБ

В этой теме нет новых непрочитанных сообщений. Как братья / Comme des freres / Just Like Brothers [комедия, 2012] BDRip 1080p, Avo+Sub

salma3

17 | 4

9.33 ГБ

В этой теме нет новых непрочитанных сообщений. Как братья / Comme des freres / Just Like Brothers [комедия, 2012] BDRip 720p, Avo

salma3

20 | 3

5 ГБ

В этой теме нет новых непрочитанных сообщений. Могила девушки / Неоплаканная могила / The Girl's Grave / Mourning Grave [Ужасы, комедия, романтика, 2014] HDRip, dvo

Dracon

664 | 19

1.35 ГБ


Начать новую тему Ответить на тему  [ 1 сообщение ] 




Для Мосгорсуда, Роскомнадзора и рекламодателей:: mosgorsud-torrent[собачка]yandex.ru