Торрент файл
скачать торрент магнет ссылка Добавлен: 01 май 2013, 07:33
Размер: 2.89 ГБ
Сидеров: 2
Личеров: 4
Автор

СообщениеДобавлено: 01 май 2013, 07:33 

Не в сети
Дата регистрации:
30 дек 2012, 18:57
Спасибо: 3 / 0
Сообщения: 17
Карантин 1-2 / Dilogy
Год выпуска: 2008,2011
Выпущено: США
Жанр: ужасы, фантастика, триллер
Продолжительность: ~01:22:46
Перевод: Профессиональный (полное дублирование) [Лицензия]
Субтитры: есть
Режиссер: Джон Эрик Даудл , Джон Пог / John Pogue
В ролях: Джордж Бэк, Эндрю Бенатор, Джейсон Бенжамин, Бри Блэр, Линн Коул, Джош Кук, Майкл Ковингтон, Джон Каррен, Филлип ДеВона, Джули Перез
Описание
После того, как один из пассажиров самолета выказал признаки необъяснимого заболевания сопровождающегося безумным поведением, самолет совершил вынужденную посадку. Сойдя с трапа пассажиры рейса обнаруживают себя в карантинной зоне, в которую превратили терминал прибытия городские службы. И не зря, надо сказать, превратили, так как один за другим подобной заразой заболевают другие пассажиры


Автор рипов: deadmauVlad
Релиз группа Zolord'S Team
Качество: BDRip
Формат: MKV
Видео кодек: XviD
Аудио кодек: AC3
Видео: 688X384(16:9),25.000 fps,2 501 Kbps
Аудио: AC-3, 448 Kbps,6 ch,Russian,DUB,Front: L C R, Side: L R, LFE

[img=right]http://i.imgur.com/agTWkWx.jpg[/img]
Качество: BDRip Исходник BDRemux
Формат: MKV
Видео кодек: XviD
Аудио кодек: AC3
Видео: 704 x 384(16:9),25.000 fps,2 501 Kbps
Аудио: AC-3, 448 Kbps,6 ch,,DUB,Front: L C R, Side: L R, LFE
Sample карантин 1

General
Unique ID : 194267797083109569644336948472530205035 (0x92269DE43245DB578DE3F25AAAF5F96B)
Complete name : E:\Фильмы\Ужасы !!!!!!\Карантин 1-2.D. Dilogy. BDRip _deadmauvlad_ + sub(HQClub)\Karantin.2008.RUS.BDRip.XviD.AC3.__Deadmauvlad__.mkv
Format : Matroska
Format version : Version 2
File size : 1.45 GiB
Duration : 1h 29mn
Overall bit rate : 2 323 Kbps
Encoded date : UTC 2013-04-05 13:52:28
Writing application : mkvmerge v5.7.0 ('The Whirlwind') built on Jul 29 2012 15:12:35
Writing library : libebml v1.2.3 + libmatroska v1.3.0
Attachment : Yes / Yes / Yes

Video
ID : 1
Format : MPEG-4 Visual
Format profile : Advanced Simple@L5
Format settings, BVOP : Yes
Format settings, QPel : No
Format settings, GMC : No warppoints
Format settings, Matrix : Custom
Codec ID : XVID
Codec ID/Hint : XviD
Duration : 1h 29mn
Bit rate : 1 892 Kbps
Width : 704 pixels
Height : 384 pixels
Display aspect ratio : 1.85:1
Frame rate : 23.976 fps
Color space : YUV
Chroma subsampling : 4:2:0
Bit depth : 8 bits
Scan type : Progressive
Compression mode : Lossy
Bits/(Pixel*Frame) : 0.292
Stream size : 1.18 GiB (81%)
Writing library : XviD 57
Default : Yes
Forced : No

Audio
ID : 2
Format : AC-3
Format/Info : Audio Coding 3
Mode extension : CM (complete main)
Format settings, Endianness : Big
Muxing mode : Header stripping
Codec ID : A_AC3
Duration : 1h 29mn
Bit rate mode : Constant
Bit rate : 384 Kbps
Channel(s) : 6 channels
Channel positions : Front: L C R, Side: L R, LFE
Sampling rate : 48.0 KHz
Bit depth : 16 bits
Compression mode : Lossy
Stream size : 245 MiB (17%)
Default : Yes
Forced : No









[img=left]http://i18.fastpic.ru/big/2011/0811/30/2b4098c8d6d96fb7465c8668de463c30.jpg[/img]

того, как один из пассажиров самолета выказал признаки необъяснимого заболевания сопровождающегося безумным поведением, самолет совершил вынужденную посадку. Сойдя с трапа пассажиры рейса обнаруживают себя в карантинной зоне, в которую превратили терминал прибытия городские службы. И не зря, надо сказать, превратили, так как один за другим подобной заразой заболевают другие пассажиры
Качество: BDRip Исходник BDRemux 1080
Формат: MKV
Видео кодек: XviD
Аудио кодек: AC3
Видео: XviD,688 x 384(16:9),25.000 fps,2 501 Kbps.0.303 Bits/(Pixel*Frame)
Аудио: AC-3, 448 Kbps,6 ch,,DUB,Front: L C R, Side: L R, LFE





General
Unique ID : 186266554871088312666723449954059118356 (0x8C21A2316878F8A8B6D1164A719F6714)
Complete name : E:\Фильмы\Ужасы !!!!!!\Карантин 1-2.D. Dilogy. BDRip _deadmauvlad_ + sub(HQClub)\Karantin.2.Terminal_BDRip__[deadmauvlad].mkv
Format : Matroska
Format version : Version 2
File size : 1.45 GiB
Duration : 1h 22mn
Overall bit rate : 2 501 Kbps
Encoded date : UTC 2013-04-05 13:58:09
Writing application : mkvmerge v5.7.0 ('The Whirlwind') built on Jul 29 2012 15:12:35
Writing library : libebml v1.2.3 + libmatroska v1.3.0
Attachment : Yes / Yes / Yes

Video
ID : 1
Format : MPEG-4 Visual
Format profile : Advanced Simple@L5
Format settings, BVOP : Yes
Format settings, QPel : No
Format settings, GMC : No warppoints
Format settings, Matrix : Custom
Codec ID : XVID
Codec ID/Hint : XviD
Duration : 1h 22mn
Bit rate : 2 003 Kbps
Width : 688 pixels
Height : 384 pixels
Display aspect ratio : 16:9
Original display aspect ratio : 16:9
Frame rate : 25.000 fps
Color space : YUV
Chroma subsampling : 4:2:0
Bit depth : 8 bits
Scan type : Progressive
Compression mode : Lossy
Bits/(Pixel*Frame) : 0.303
Stream size : 1.16 GiB (80%)
Writing library : XviD 1.2.1 (UTC 2008-12-04)
Language : Russian
Default : Yes
Forced : No

Audio
ID : 2
Format : AC-3
Format/Info : Audio Coding 3
Mode extension : CM (complete main)
Format settings, Endianness : Big
Muxing mode : Header stripping
Codec ID : A_AC3
Duration : 1h 22mn
Bit rate mode : Constant
Bit rate : 448 Kbps
Channel(s) : 6 channels
Channel positions : Front: L C R, Side: L R, LFE
Sampling rate : 48.0 KHz
Bit depth : 16 bits
Compression mode : Lossy
Stream size : 265 MiB (18%)
Default : Yes
Forced : No















реклама партнёра


Вернуться к началу
 Профиль Отправить личное сообщение  
 
   Похожие торренты   Автор   Торрент   Размер 
В этой теме нет новых непрочитанных сообщений. Париж: Город мёртвых / As Above, So Below (Джон Эрик Даудл) [2014, ужасы, триллер, HDRip-AVC | Лицензия] Dub

Nickolas3435

554 | 33

744.02 МБ

В этой теме нет новых непрочитанных сообщений. Выхода нет / No Escape (Джон Эрик Даудл) [боевик, Триллер, 2015] BDRip 1080p, Dub+Sub [Звук с IPTV]

Dracon

254 | 30

12.35 ГБ

В этой теме нет новых непрочитанных сообщений. Выхода нет / No Escape (Джон Эрик Даудл) [боевик, Триллер, 2015] BDRip 720p, dub [Чистый звук]

Dracon

3496 | 136

7.4 ГБ

В этой теме нет новых непрочитанных сообщений. Выхода нет / No Escape (Джон Эрик Даудл) [боевик, Триллер, 2015] HDRip, Dub [Звук с IPTV]

Dracon

31 | 1

1.46 ГБ

В этой теме нет новых непрочитанных сообщений. Выхода нет / No Escape (Джон Эрик Даудл) [боевик, Триллер, 2015] BDRemux 1080p, Dub+Sub [c IPTV]

Dracon

354 | 56

18.9 ГБ

В этой теме нет новых непрочитанных сообщений. Джон Картер / John Carter [фантастика, фэнтези, боевик, приключения, 2012] BDRip, Avo [Гаврилов]

salma3

36 | 6

1.46 ГБ

В этой теме нет новых непрочитанных сообщений. Джон Картер 3D / John Carter 3D [Фантастика, Фэнтези, Боевик, Приключения, 2012] BDRip 1080p, Dub+Sub [3D-Video | HSBS | 60 fps]

Dracon

116 | 13

17.33 ГБ


Начать новую тему Ответить на тему  [ 1 сообщение ] 




Для Мосгорсуда, Роскомнадзора и рекламодателей:: mosgorsud-torrent[собачка]yandex.ru