Торрент файл
скачать торрент магнет ссылка Добавлен: 30 апр 2013, 10:32
Размер: 1.45 ГБ
Сидеров: 5
Личеров: 4
Статус: (Dracon)
Автор

СообщениеДобавлено: 30 апр 2013, 10:32 

Не в сети
Зам. Админа
Аватара пользователя
Дата регистрации:
02 дек 2010, 12:39
Спасибо: 12461 / 214
Сообщения: 27968


Год выхода: 2012
Жанр: ужасы, триллер, мелодрама
Режиссер: Дарио Ардженто

В ролях: Азия Ардженто, Томас Кречманн, Рутгер Хауэр, Марта Гастини, Мириам Джованелли, Унакс Угальде, Мария Кристина Хеллер, Морган Слемп, Аугусто Дзукки, Кристиан Бурруано...

О фильме: Трансильвания, 1893 год. Молодой библиотекарь Джонатан Харкер прибывает в деревню Пассо Борго, нанявшись на работу к местному аристократу графу Дракуле. Познакомившись со своим загадочным хозяином, Джонатан вскоре узнает истинную натуру графа и понимает, в какой опасности находится он сам и его жена Мина. Одни за другим вокруг таинственно погибают люди. Кажется, только Авраам ван Хельсинг, уже встречавшийся на пути графа, способен изменить их печальную участь.



Страна: Италия, Франция, Испания
Продолжительность: 01:50:00
Перевод: Авторский (одноголосый закадровый) А. Дольский, Оригинал (Английский)

Кодек: x.264
Качество: BDRip-AVC
Видео: 1024x432 (2,40:1), 23.976 fps, 1312 kbps, 0.124 bit/pixel
Аудио #1: 48 kHz, AC3 Dolby Digital, 6 ch, ~384.00 kbps (А. Дольский)
Аудио #2: 48 kHz, AC3 Dolby Digital, 2 ch, ~192.00 kbps (Английский)
Субтитры: Русские (отключаемые)
Сэмпл

&

Общее
Уникальный идентификатор : 201936354343316517440879704955231659724 (0x97EB86F48C7DCEB9B161D15B54BBE6CC)
Полное имя : D:TorrentDracula.2012.BDRip-AVC.mkv
Формат : Matroska
Версия формата : Version 4 / Version 2
Размер файла : 1,45 Гбайт
Продолжительность : 1 ч. 50 м.
Общий поток : 1887 Кбит/сек
Название фильма : Дракула / Dracula (2012) BDRip-AVC rip by Rulya74
Дата кодирования : UTC 2013-04-30 03:43:14
Программа кодирования : mkvmerge v6.1.0 ('Old Devil') built on Mar 2 2013 14:32:37
Библиотека кодирования : libebml v1.3.0 + libmatroska v1.4.0

Видео
Идентификатор : 1
Формат : AVC
Формат/Информация : Advanced Video Codec
Профиль формата : High@L4.1
Параметр CABAC формата : Да
Параметр ReFrames формата : 12 кадров
Идентификатор кодека : V_MPEG4/ISO/AVC
Продолжительность : 1 ч. 50 м.
Битрейт : 1312 Кбит/сек
Ширина : 1024 пикселя
Высота : 432 пикселя
Соотношение сторон : 2,40:1
Режим частоты кадров : Постоянный
Частота кадров : 23,976 кадра/сек
Цветовое пространство : YUV
Субдискретизация насыщенности : 4:2:0
Битовая глубина : 8 бит
Тип развёртки : Прогрессивная
Бит/(Пиксели*Кадры) : 0.124
Размер потока : 1002 Мбайт (67%)
Библиотека кодирования : x264 core 130 r2273 b3065e6
Настройки программы : cabac=1 / ref=12 / deblock=1:-1:-1 / analyse=0x3:0x133 / me=umh / subme=10 / psy=1 / psy_rd=1.70:0.09 / mixed_ref=1 / me_range=40 / chroma_me=1 / trellis=2 / 8x8dct=1 / cqm=0 / deadzone=21,11 / fast_pskip=0 / chroma_qp_offset=-3 / threads=3 / lookahead_threads=6 / sliced_threads=0 / nr=0 / decimate=1 / interlaced=0 / bluray_compat=0 / constrained_intra=0 / bframes=7 / b_pyramid=2 / b_adapt=2 / b_bias=0 / direct=3 / weightb=1 / open_gop=0 / weightp=2 / keyint=250 / keyint_min=23 / scenecut=40 / intra_refresh=0 / rc_lookahead=50 / rc=2pass / mbtree=1 / bitrate=1312 / ratetol=1.0 / qcomp=0.60 / qpmin=0 / qpmax=69 / qpstep=4 / cplxblur=20.0 / qblur=0.5 / ip_ratio=1.40 / aq=1:1.00
Default : Да
Forced : Нет

Аудио #1
Идентификатор : 2
Формат : AC-3
Формат/Информация : Audio Coding 3
Расширение режима : CM (complete main)
Параметр Endianness формата : Big
Идентификатор кодека : A_AC3
Продолжительность : 1 ч. 50 м.
Вид битрейта : Постоянный
Битрейт : 384 Кбит/сек
Каналы : 6 каналов
Расположение каналов : Front: L C R, Side: L R, LFE
Частота : 48,0 КГц
Битовая глубина : 16 бит
Метод сжатия : С потерями
Размер потока : 302 Мбайт (20%)
Заголовок : Авторский (А. Дольский)
Язык : Russian
Default : Да
Forced : Нет

Аудио #2
Идентификатор : 3
Формат : AC-3
Формат/Информация : Audio Coding 3
Расширение режима : CM (complete main)
Параметр Endianness формата : Big
Идентификатор кодека : A_AC3
Продолжительность : 1 ч. 50 м.
Вид битрейта : Постоянный
Битрейт : 192 Кбит/сек
Каналы : 2 канала
Расположение каналов : Front: L R
Частота : 48,0 КГц
Битовая глубина : 16 бит
Метод сжатия : С потерями
Размер потока : 151 Мбайт (10%)
Заголовок : Оригинал
Язык : English
Default : Нет
Forced : Нет

Текст
Идентификатор : 4
Формат : UTF-8
Идентификатор кодека : S_TEXT/UTF8
Идентификатор кодека/Информация : UTF-8 Plain Text
Язык : Russian
Default : Да
Forced : Нет





реклама партнёра


Вернуться к началу
 Профиль  
 
   Похожие торренты   Автор   Торрент   Размер 
В этой теме нет новых непрочитанных сообщений. Дракула / Dracula [ужасы, триллер, мелодрама, 2012] HDRip, Mvo [Лицензия]

salma3

288 | 20

1.46 ГБ

В этой теме нет новых непрочитанных сообщений. Дракула / Dracula [ужасы, фэнтези, мелодрама, 1992] Blu-ray CEE 1080p, Dub+Sub

salma3

12 | 40

45.17 ГБ

В этой теме нет новых непрочитанных сообщений. Дракула / Dracula [S01] [ужасы, триллер, драма, 2013-2014] WEB-DLRip, Mvo [BaibaKo]

Dracon

9 | 7

6.42 ГБ

В этой теме нет новых непрочитанных сообщений. Дракула 2000 / Dracula 2000 [ужасы, фэнтези, боевик, триллер, 2000] BDRip 720p, Dub+Sub

salma3

101 | 8

3.83 ГБ

В этой теме нет новых непрочитанных сообщений. Дракула 2000 / Dracula 2000 [ужасы, фэнтези, боевик, триллер, 2000] BDRip 1080p, Dub+Sub

salma3

54 | 14

9.81 ГБ

В этой теме нет новых непрочитанных сообщений. Дракула / Dracula Untold (Гари Шор) [ужасы, фэнтези, боевик, драма, военный, 2014] BDRip, Dub [Лицензия]

Dracon

415 | 17

1.37 ГБ

В этой теме нет новых непрочитанных сообщений. Дракула / Dracula Untold [ужасы, фэнтези, боевик, драма, военный, 2014] BDRip 720p, Dub [iTunes]

Dracon

799 | 65

4.62 ГБ


Начать новую тему Ответить на тему  [ 1 сообщение ] 




Для Мосгорсуда, Роскомнадзора и рекламодателей:: mosgorsud-torrent[собачка]yandex.ru