Торрент файл
скачать торрент магнет ссылка Добавлен: 28 апр 2013, 14:45
Размер: 744.95 МБ
Сидеров: 1
Личеров: 3
Автор

СообщениеДобавлено: 28 апр 2013, 14:45 

Не в сети
Супермодератор
Аватара пользователя
Дата регистрации:
15 фев 2012, 16:44
Возраст: 28
Спасибо: 6577 / 2143
Сообщения: 43865

Год выпуска: 1984
Страна: Франция
Жанр:Комедия
Продолжительность: 01:44:40
Перевод: Профессиональный (многоголосый, закадровый) CP Digital
Субтитры: нет

Режиссер: Ив Робер / Yves Robert

В ролях: Пьер Ришар, Жан-Пьерр Касталди, Жан-Пьер Кальфон, Камилла Мор, Кэрри Мор, Андреа Ферреоль/Andrea Ferreol, Жак Франц
Описание: Проигравшись в карты, Матиас приезжает к другу в курортное местечко, где знакомится с красивой блондинкой-американкой, наследницей огромного состояния, Лиз Кернер. У Лиз оказалась сестра-близнец, Бетти, а Ришар после любви зачем-то брякнул, что у него тоже есть брат-близнец. Будучи игроком по натуре, он продолжил игру и после того, как стал любовником обеих сестричек. Сложности начинаются тогда, когда обе сестры заявили, что хотят выйти за него замуж, чтобы вступить в права наследства.

Качество: DVDRip
Формат: AVI
Видео кодек: XviD
Аудио кодек: MP3
Видео: 624x368 (1.696:1), 25 fps, XviD build 50 ~858 kbps avg, 0.15 bit/pixel
Аудио: 48 kHz, MPEG Layer 3, 2 ch, ~128.00 kbps avg

Сэмпл
D:JUMEAU_[YTN] by dexter lex.avi
General
Complete name : D:JUMEAU_[YTN] by dexter lex.avi
Format : AVI
Format/Info : Audio Video Interleave
File size : 745 MiB
Duration : 1h 44mn
Overall bit rate : 996 Kbps
Writing application : VirtualDubMod 1.5.10.3 | http://www.virtualdub-fr.org || (build 2550/release)
Writing library : VirtualDubMod build 2550/release
Video #0
ID : 0
Format : MPEG-4 Visual
Format profile : Advanced Simple@L5
Format settings, BVOP : 1
Format settings, QPel : No
Format settings, GMC : No warppoints
Format settings, Matrix : Custom
Codec ID : XVID
Codec ID/Hint : XviD
Duration : 1h 44mn
Bit rate : 858 Kbps
Width : 624 pixels
Height : 368 pixels
Display aspect ratio : 1.696:1
Frame rate : 25.000 fps
Color space : YUV
Chroma subsampling : 4:2:0
Bit depth : 8 bits
Scan type : Progressive
Compression mode : Lossy
Bits/(Pixel*Frame) : 0.149
Stream size : 642 MiB (86%)
Writing library : XviD 1.2.1 (UTC 2008-12-04)
Audio #1
ID : 1
Format : MPEG Audio
Format version : Version 1
Format profile : Layer 3
Codec ID : 55
Codec ID/Hint : MP3
Duration : 1h 44mn
Bit rate mode : Constant
Bit rate : 128 Kbps
Channel(s) : 2 channels
Sampling rate : 48.0 KHz
Compression mode : Lossy
Stream size : 95.7 MiB (13%)
Alignment : Aligned on interleaves
Interleave, duration : 40 ms (1.00 video frame)
Interleave, preload duration : 504 ms
Writing library : LAME3.99r
Encoding settings : -m s -V 4 -q 2 -lowpass 17 -b 128


Раздача от:




реклама партнёра


Вернуться к началу
 Профиль Отправить личное сообщение  
 
   Похожие торренты   Автор   Торрент   Размер 
В этой теме нет новых непрочитанных сообщений. Близнец / Le jumeau [комедия, 1984] BDRip, Mvo

salma3

17 | 2

1.45 ГБ

В этой теме нет новых непрочитанных сообщений. Близнец / The Twin / Le jumeau [комедия, 1984] BDRip 720p, Mvo

salma3

33 | 13

5.49 ГБ

В этой теме нет новых непрочитанных сообщений. С глазу на глаз / A tu per tu [Комедия, 1984] DVDRip-AVC, Dvo+Avo

salma3

47 | 25

3.79 ГБ

В этой теме нет новых непрочитанных сообщений. Деревенщина / Il ragazzo di campagna [комедия, 1984] DVDRip, Avo

salma3

9 | 3

1.45 ГБ

В этой теме нет новых непрочитанных сообщений. Горный хрусталь / Rhinestone [комедия, музыка, 1984] DVDRip, Avo

salma3

11 | 2

1.46 ГБ

В этой теме нет новых непрочитанных сообщений. Класс 1984 / Class of 1984 [боевик, триллер, драма, 1982] HDRip, Avo

salma3

30 | 8

745.19 МБ

В этой теме нет новых непрочитанных сообщений. Класс 1984 / Class of 1984 [боевик, триллер, драма, 1982] BDRip, Avo

salma3

27 | 4

1.45 ГБ


Начать новую тему Ответить на тему  [ 1 сообщение ] 




Для Мосгорсуда, Роскомнадзора и рекламодателей:: mosgorsud-torrent[собачка]yandex.ru