Торрент файл
скачать торрент магнет ссылка Добавлен: 27 апр 2013, 19:37
Размер: 748.59 МБ
Сидеров: 2
Личеров: 2
Автор

СообщениеДобавлено: 27 апр 2013, 19:37 

Не в сети
Супермодератор
Аватара пользователя
Дата регистрации:
15 фев 2012, 16:44
Возраст: 27
Спасибо: 6075 / 2117
Сообщения: 29825
Страна: Великобритания
Жанр:детектив, комедия
Год выпуска: 1988
Продолжительность: 01:20:10

Перевод: Авторский (одноголосый закадровый) Юрий Сербин
Cубтитры: нет
Оригинальная аудиодорожка: нет

Режиссер: Стивен Байли / Stephen Bayly

В ролях: Колин Дэйл, Саид Джаффри, Дарсли МакЛинден, Хосе Рене Руис, Майкл Роббинс, Дональд Стэнден, Патриция Ходж, Джим МакМанус, Джимми Наил, Рой Киннер...

Описание: Карлик передаёт на хранение коробку самому некомпетентному частному детективу Джиму Даймонду. В этот же день карлика находят мертвым. Распаковав коробку, Джим вместе со своим младшим братом выясняют, что это всего лишь коробка конфет. Что может таиться в коробке конфет и почему ей интересуются, чуть ли не все мафиозники Европы?

Доп. информация: За оцифровку VHS с переводом Сербина спасибо Fikaloid.

Сэмпл: http://multi-up.com/859197

Качество видео: DVDRip
Формат видео: AVI

Видео: 688x368 (1.87:1), 25 fps, XviD build 50 ~1199 kbps avg, 0.19 bit/pixel
Аудио: 48 kHz, AC3 Dolby Digital, 1/0 (C) ch, ~96 kbps



General
Complete name : C:Just Ask For Diamond.avi
Format : AVI
Format/Info : Audio Video Interleave
File size : 749 MiB
Duration : 1h 20mn
Overall bit rate : 1 306 Kbps
Writing application : VirtualDubMod 1.5.10.3 (build 2550/release)
Writing library : VirtualDubMod build 2550/release

Video
ID : 0
Format : MPEG-4 Visual
Format profile : Advanced Simple@L5
Format settings, BVOP : 2
Format settings, QPel : No
Format settings, GMC : No warppoints
Format settings, Matrix : Default (MPEG)
Codec ID : XVID
Codec ID/Hint : XviD
Duration : 1h 20mn
Bit rate : 1 200 Kbps
Width : 688 pixels
Height : 368 pixels
Display aspect ratio : 1.85:1
Frame rate : 25.000 fps
Color space : YUV
Chroma subsampling : 4:2:0
Bit depth : 8 bits
Scan type : Progressive
Compression mode : Lossy
Bits/(Pixel*Frame) : 0.190
Stream size : 688 MiB (92%)
Writing library : XviD 1.2.1 (UTC 2008-12-04)

Audio
ID : 1
Format : AC-3
Format/Info : Audio Coding 3
Mode extension : CM (complete main)
Format settings, Endianness : Big
Codec ID : 2000
Duration : 1h 20mn
Bit rate mode : Constant
Bit rate : 96.0 Kbps
Channel(s) : 1 channel
Channel positions : Front: C
Sampling rate : 48.0 KHz
Bit depth : 16 bits
Compression mode : Lossy
Stream size : 55.0 MiB (7%)
Alignment : Split accross interleaves
Interleave, duration : 40 ms (1.00 video frame)
Interleave, preload duration : 500 ms






реклама партнёра


Вернуться к началу
 Профиль Отправить личное сообщение  
 
   Похожие торренты   Автор   Торрент   Размер 
В этой теме нет новых непрочитанных сообщений. Diamond Foxxx - офигенная лярва, обожающая трахаться!!! (aka Diamond, Diamond Fox, Diamond Foxx, Lauren) (129 роликов - МЕГАПАК!!!) [All Sex, Anal, Big Tits, DP, GangBang, Gonzo, Lesbians, MILF, Solo, Softcore, Squirt, Toys]

salma3

17 | 35

50.8 ГБ

В этой теме нет новых непрочитанных сообщений. [Fuckingawesome.com] Diamond Monrow(DIAMOND HELPS HER COMMANDER IN CHIEF GET A LOAD OFF) [2017 г., All Sex, Blowjob, 480p]

salma3

0 | 0

303.35 МБ

В этой теме нет новых непрочитанных сообщений. Suzie Diamond - DP with Suzie Diamond / Anal Gate 1: Asshole Combustion (2014) WEBRip

salma3

6 | 0

698.37 МБ

В этой теме нет новых непрочитанных сообщений. Skin Deep / Глубоко В Skin Diamond (Jonni Darkko / Evil Angel) (Skin Diamond, Prince Yahshua, Xander Corvus, Jon Jon, Billy Glide...) [2014 г., Gonzo Anal, WEB-DL 544p](Split Scenes)

friizze

12 | 25

3.12 ГБ

В этой теме нет новых непрочитанных сообщений. Дом с привидениями / La casa 3 / Ghosthouse [ужасы, триллер, детектив, 1988] DVDRip, Mvo

salma3

86 | 19

1.46 ГБ

В этой теме нет новых непрочитанных сообщений. Тройное преступление / Baton Rouge [мелодрама, детектив, криминал, 1988] DVDRip, Avo

salma3

9 | 2

1.37 ГБ

В этой теме нет новых непрочитанных сообщений. Лак для волос / Hairspray [комедия, 1988] DVDRip, Avo

salma3

21 | 4

1.37 ГБ


Начать новую тему Ответить на тему  [ 1 сообщение ] 




Для Мосгорсуда, Роскомнадзора и рекламодателей:: mosgorsud-torrent[собачка]yandex.ru