Торрент файл
скачать торрент магнет ссылка Добавлен: 27 апр 2013, 00:57
Размер: 1.46 ГБ
Сидеров: 39
Личеров: 4
Статус: (salma3)
Автор

СообщениеДобавлено: 27 апр 2013, 00:57 

Не в сети
Супермодератор
Аватара пользователя
Дата регистрации:
15 фев 2012, 16:44
Возраст: 27
Спасибо: 5139 / 2089
Сообщения: 17411

Дом на Турецкой улице / No good deed / The House on Turk Street

Год выхода: 2002
Жанр: Триллер, Детектив, Драма, Криминал
Режиссер: Боб Рэфелсон / Bob Rafelson
В ролях: Сэмюэл Л. Джексон, Мила Йовович, Стеллан Скарсгард, Даг Хатчисон, Грэйс Зэбриски, Джосс Эклэнд

О фильме:
Полицейский Джек Фрайар уже собирал вещи, чтобы отправиться вместе со своей виолончелью в давно заслуженный отпуск, когда к нему прибежала встревоженная соседка. У женщины пропала дочь, которая, вероятно, ушла гулять с подозрительным молодым человеком, живущим где-то на Турецкой улице. Нехотя отправившись на поиски девушки и опрашивая всех обитателей на этой длинной улице, детектив даже представить себе не мог, что в одном из домов его возьмут в заложники! А все потому, что там готовилось хитроумное ограбление банка, и засевшие в особнячке бандиты решили, что Фрайар шел по их следу...

По роману Дэшила Хэммета



Страна: США
Продолжительность: 01:33:35
Перевод: Профессиональный (полное дублирование)

Файл
Кодек: Xvid
Качество: DVDRip
Видео: 720x384, 25,000 fps, 2031 Kbps
Звук: AC3, 2 ch, 192.00 kbps
General
Complete name: Dom.na.Tureckoy.Ulice.2002.DVDRip.avi
Format: AVI
Format/Info: Audio Video Interleave
File size: 1.46 GiB
Duration: 1h 33mn
Overall bit rate: 2 233 Kbps
Writing application: VirtualDubMod 1.5.10.2 (build 2542/release)
Writing library: VirtualDubMod build 2542/release

Video
ID: 0
Format: MPEG-4 Visual
Format profile: Advanced Simple@L5
Format settings, BVOP: 1
Format settings, QPel: No
Format settings, GMC: No warppoints
Format settings, Matrix: Custom
Codec ID: XVID
Codec ID/Hint: XviD
Duration: 1h 33mn
Bit rate: 2 031 Kbps
Width: 720 pixels
Height: 384 pixels
Display aspect ratio: 1.85:1
Frame rate: 25.000 fps
Color space: YUV
Chroma subsampling: 4:2:0
Bit depth: 8 bits
Scan type: Progressive
Compression mode: Lossy
Bits/(Pixel*Frame): 0.294
Stream size: 1.33 GiB (91%)
Writing library: XviD 65

Audio
ID: 1
Format: AC-3
Format/Info: Audio Coding 3
Mode extension: CM (complete main)
Format settings, Endianness: Big
Codec ID: 2000
Duration: 1h 33mn
Bit rate mode: Constant
Bit rate: 192 Kbps
Channel(s): 2 channels
Channel positions: Front: L R
Sampling rate: 48.0 KHz
Bit depth: 16 bits
Compression mode: Lossy
Stream size: 128 MiB (9%)
Alignment: Split accross interleaves
Interleave, duration: 40 ms (1.00 video frame)
Interleave, preload duration: 500 ms



Релиз от: Leon-masl




реклама партнёра


Вернуться к началу
 Профиль Отправить личное сообщение  
 
   Похожие торренты   Автор   Торрент   Размер 
В этой теме нет новых непрочитанных сообщений. Никаких добрых дел / No Good Deed [Триллер, Криминал, 2014] WEB-DLRip, Mvo [iTunes]

Dracon

32 | 2

1.36 ГБ

В этой теме нет новых непрочитанных сообщений. Никаких добрых дел / No Good Deed [Триллер, Криминал, 2014] BDRip 720p, Mvo [iTunes]

Dracon

51 | 5

4.59 ГБ

В этой теме нет новых непрочитанных сообщений. На греческой улице... / The House on Sorority Row [ужасы, триллер, детектив, 1983] DVDRip, Dvo

salma3

176 | 33

1.46 ГБ

В этой теме нет новых непрочитанных сообщений. На греческой улице... / The House on Sorority Row [ужасы, триллер, детектив, 1983] BDRemux 1080p, Dvo

salma3

4 | 4

13.1 ГБ

В этой теме нет новых непрочитанных сообщений. Skinny Molly - No Good Deed... [2008, Hard Rock, Southern Rock, MP3]

PriZraK

0 | 1

78.89 МБ

В этой теме нет новых непрочитанных сообщений. Хорошее поведение / Good Behavior [01x01 из 13] (триллер, драма, криминал, детектив, 2016) HDTV 720p | IdeaFilm

marya111

0 | 0

1.61 ГБ

В этой теме нет новых непрочитанных сообщений. Хорошее поведение / Good Behavior [01х01-02 из 10] (триллер, драма, криминал, детектив, 2016) HDTVRip | Sunshine Studio

marya111

20 | 5

1.23 ГБ


Начать новую тему Ответить на тему  [ 1 сообщение ] 




Для Мосгорсуда, Роскомнадзора и рекламодателей:: mosgorsud-torrent[собачка]yandex.ru