Торрент файл
скачать торрент магнет ссылка Добавлен: 26 апр 2013, 09:18
Размер: 1.46 ГБ
Сидеров: 77
Личеров: 2
Автор

СообщениеДобавлено: 26 апр 2013, 09:18 

Не в сети
Зам. Админа
Аватара пользователя
Дата регистрации:
02 дек 2010, 12:39
Спасибо: 12460 / 214
Сообщения: 27968
«Наконец-то»


Страна: США
Жанр:комедия
Год выпуска: 2013
Продолжительность: 01:29:20
Перевод: Профессиональный (дублированный)
Cубтитры: нет

Режиссер: Джон Лукас / Jon Lucas, Скотт Мур / Scott Moore

В ролях: Скайлар Эстин, Сара Райт, Майлз Теллер, Джонатан Кельтц, Джастин Чон, Сара Райт, Джонатан Кельтц, Франсуа Чау, Расселл Ходжкинсон, Дэниэл Буко, Расселл Меркадо, Джози Лор...

Роли дублировали: Сергей Смирнов, Александр Дасевич, Даниил Эльдаров

Описание: Двое друзей подбивают третьего отметить его 21-ый день рождения прямо накануне важного экзамена в медицинский колледж. Никто не замечает, как одна кружка пива превращается в море выпивки, а вечеринка — в бурное и незабываемое приключение с музыкой и девчонками. И где же они окажутся утром?

Исходник: DVD5 R5
Качество: DVDRip
Формат: AVI

Видео: 720x400 (16:9), 25.000 fps, XviD ~ 1942 kbps avg, 0.270 bit/pixel
Аудио: 48 kHz, AC3 6 ch, 384 kbps, русский

Раздача от:

Общее
Полное имя: 21.i.bolshe.2013.D.DVDRip_[Youtracker]_by_avproh.avi
Формат: AVI
Формат/Информация: Audio Video Interleave
Размер файла: 1,46 Гбайт
Продолжительность: 1 ч. 29 м.
Общий поток: 2335 Кбит/сек
Программа кодирования: VirtualDubMod 1.5.10.3 | http://www.virtualdub-fr.org || (build 2550/release)
Библиотека кодирования: VirtualDubMod build 2550/release

Видео
Идентификатор: 0
Формат: MPEG-4 Visual
Профиль формата: Advanced Simple@L5
Параметр BVOP формата: 1
Параметр QPel формата: Нет
Параметр GMC формата: Без точки перехода
Параметр матрицы формата: Выборочная
Идентификатор кодека: XVID
Идентификатор кодека/Подсказка: XviD
Продолжительность: 1 ч. 29 м.
Битрейт: 1942 Кбит/сек
Ширина: 720 пикселей
Высота: 400 пикселей
Соотношение сторон: 16:9
Частота кадров: 25,000 кадров/сек
Цветовое пространство: YUV
Субдискретизация насыщенности: 4:2:0
Битовая глубина: 8 бит
Тип развёртки: Прогрессивная
Метод сжатия: С потерями
Бит/(Пиксели*Кадры): 0.270
Размер потока: 1,21 Гбайт (83%)
Библиотека кодирования: XviD 65

Аудио
Идентификатор: 1
Формат: AC-3
Формат/Информация: Audio Coding 3
Расширение режима: CM (complete main)
Параметр Endianness формата: Big
Идентификатор кодека: 2000
Продолжительность: 1 ч. 29 м.
Вид битрейта: Постоянный
Битрейт: 384 Кбит/сек
Каналы: 6 каналов
Расположение каналов: Front: L C R, Side: L R, LFE
Частота: 48,0 КГц
Битовая глубина: 16 бит
Метод сжатия: С потерями
Размер потока: 245 Мбайт (16%)
Выравнивание: Разделение по промежуткам
Продолжительность промежутка: 40мс. (1,00 видеокадр)
Время предзагрузки промежутка: 500мс.







реклама партнёра


Вернуться к началу
 Профиль  
 
   Похожие торренты   Автор   Торрент   Размер 
В этой теме нет новых непрочитанных сообщений. Тётушки [комедия, 2013] DVDRip [Лицензия]

Dracon

2025 | 66

1.46 ГБ

В этой теме нет новых непрочитанных сообщений. Ёлки 3 [Комедия, 2013] DVDRip [Лицензия]

Dracon

1459 | 30

1.37 ГБ

В этой теме нет новых непрочитанных сообщений. Ёлки 3 [Комедия, 2013] DVDRip-AVC [Лицензия]

RusTan

168 | 2

1.46 ГБ

В этой теме нет новых непрочитанных сообщений. Полярный рейс [Комедия, 2013] DVDRip [Лицензия]

Dracon

4618 | 357

1.37 ГБ

В этой теме нет новых непрочитанных сообщений. Вот это любовь! [Мелодрама, комедия, 2013] DVDRip [Лицензия]

Dracon

140 | 4

1.37 ГБ

В этой теме нет новых непрочитанных сообщений. Друзья друзей [Комедия, 2013] DVDRip [Лицензия]

Dracon

1096 | 29

1.37 ГБ

В этой теме нет новых непрочитанных сообщений. 7 главных желаний [Комедия, мелодрама, 2013] DVDRip [Лицензия]

Dracon

258 | 5

1.37 ГБ


СообщениеДобавлено: 26 апр 2013, 10:44 

Не в сети
Дата регистрации:
13 окт 2012, 13:29
Спасибо: 0 / 104
Сообщения: 1
Как фильм? Стоит смотреть... :?


Вернуться к началу
 Профиль Отправить личное сообщение  
 

СообщениеДобавлено: 26 апр 2013, 11:10 

Не в сети
Зам. Админа
Аватара пользователя
Дата регистрации:
02 дек 2010, 12:39
Спасибо: 12460 / 214
Сообщения: 27968
4tech писал(а):
Как фильм? Стоит смотреть... :?

кто как отзывается об этом фильме, кому то нравиться, кому то нет...


Вернуться к началу
 Профиль  
 
Начать новую тему Ответить на тему  [ Сообщений: 3 ] 




Для Мосгорсуда, Роскомнадзора и рекламодателей:: mosgorsud-torrent[собачка]yandex.ru