Торрент файл
скачать торрент магнет ссылка Добавлен: 24 апр 2013, 18:44
Размер: 1.37 ГБ
Сидеров: 24
Личеров: 7
Автор

СообщениеДобавлено: 24 апр 2013, 18:44 

Не в сети
Супермодератор
Аватара пользователя
Дата регистрации:
15 фев 2012, 16:44
Возраст: 27
Спасибо: 5140 / 2090
Сообщения: 17466

Каскадеры / Stunts

Год выхода: 1977
Жанр: Драма, детектив
Режиссер: Марк Л. Лестер
В ролях: Роберт Форстер, Брюс Гловер, Джоанна Кэссиди, Билли Рэй Шарки, Ричард Линч, Джеймс Луизи, Кэндис Райалсон, Малачи Трон, Фиона Льюис
О фильме:Во-время съёмок полицейского боевика в Сант-Луисе, выполняя сложный вертолётно-акробатический трюк внезапно гибнет молодой каскадёр Грэг Уилсон. Дирекция проекта списывает всё на несчастный случай. Так бы и осталась смерть отчаянного парня тайной за семью печатями, если бы на съёмочной площадке злополучного фильма не появился его старший брат Глен.

Страна: США
Студия: Mark Fleischman Ltd., New Line Cinema, Spiegel-Bergman Productions Inc.
Продолжительность: 01:23:36
Перевод: Дублированный
Субтитры: Нет



Файл
Тип релиза: TVRip
Видео: Video: 720x528 (1.36:1), 25 fps, DivX ~2137 kbps avg, 0.23 bit/pixel
Аудио: 48 kHz, AC3 Dolby Digital, 2/0 (L,R) ch, ~192.00 kbps avg

Семпл
Релиз:
Общее
Полное имя: D:1АААKaskaderi.1977.avi
Формат: AVI
Формат/Информация: Audio Video Interleave
Размер файла: 1,37 Гбайт
Продолжительность: 1 ч. 23 м.
Общий поток: 2340 Кбит/сек
Библиотека кодирования: VirtualDub build 32842/release

Видео
Идентификатор: 0
Формат: MPEG-4 Visual
Параметр BVOP формата: 1
Параметр QPel формата: Нет
Параметр GMC формата: Без точки перехода
Параметр матрицы формата: Default (H.263)
Режим смешивания: Сжатый битовый поток
Идентификатор кодека: DX50
Идентификатор кодека/Подсказка: DivX 5
Продолжительность: 1 ч. 23 м.
Битрейт: 2138 Кбит/сек
Ширина: 720 пикселей
Высота: 528 пикселей
Соотношение сторон: 4:3
Частота кадров: 25,000 кадров/сек
Цветовое пространство: YUV
Субдискретизация насыщенности: 4:2:0
Битовая глубина: 8 бит
Тип развёртки: Прогрессивная
Метод сжатия: С потерями
Бит/(Пиксели*Кадры): 0.225
Размер потока: 1,25 Гбайт (91%)
Библиотека кодирования: DivX 6.8.5 (UTC 2009-08-20)

Аудио
Идентификатор: 1
Формат: AC-3
Формат/Информация: Audio Coding 3
Расширение режима: CM (complete main)
Параметр Endianness формата: Big
Идентификатор кодека: 2000
Продолжительность: 1 ч. 23 м.
Вид битрейта: Постоянный
Битрейт: 192 Кбит/сек
Каналы: 2 канала
Расположение каналов: Front: L R
Частота: 48,0 КГц
Битовая глубина: 16 бит
Метод сжатия: С потерями
Размер потока: 115 Мбайт (8%)
Выравнивание: Соединение по промежуткам
Продолжительность промежутка: 40мс. (1,00 видеокадр)
Время предзагрузки промежутка: 512мс.






реклама партнёра


Вернуться к началу
 Профиль Отправить личное сообщение  
 
   Похожие торренты   Автор   Торрент   Размер 
В этой теме нет новых непрочитанных сообщений. Скажите ей, что я ее люблю / Dites-lui que je l'aime [триллер, драма, мелодрама, детектив, 1977] DVDRip, Mvo

salma3

51 | 20

1.37 ГБ

В этой теме нет новых непрочитанных сообщений. Детектив Неш Бриджес / Nash Bridges [сезоны 1-6] [боевик, драма, криминал, детектив, 1996-2001] TVRip, Mvo

salma3

58 | 34

49.41 ГБ

В этой теме нет новых непрочитанных сообщений. Автомобиль-убийца / The Car [Триллер, детектив, ужасы, 1977] BDRip 720p, Dub

salma3

65 | 8

4.37 ГБ

В этой теме нет новых непрочитанных сообщений. Бездна / The Deep [триллер, детектив, приключения, 1977] BDRip 720p, Dub

salma3

22 | 8

7.14 ГБ

В этой теме нет новых непрочитанных сообщений. На волне ужаса / Shock Waves [ужасы, фантастика, детектив, 1977] BDRip, Avo

salma3

40 | 3

1.46 ГБ

В этой теме нет новых непрочитанных сообщений. Смотри, как я убиваю / Il gatto dagli occhi di giada [триллер, детектив, джалло, 1977] DVDRip, Avo

salma3

16 | 2

1.46 ГБ

В этой теме нет новых непрочитанных сообщений. Джулия / Julia [драма, 1977] HDTV 1080i, Mvo

salma3

13 | 47

6.07 ГБ


Начать новую тему Ответить на тему  [ 1 сообщение ] 




Для Мосгорсуда, Роскомнадзора и рекламодателей:: mosgorsud-torrent[собачка]yandex.ru