Торрент файл
скачать торрент магнет ссылка Добавлен: 24 апр 2013, 12:26
Размер: 1.49 ГБ
Сидеров: 4
Личеров: 3
Статус: (salma3)
Автор

СообщениеДобавлено: 24 апр 2013, 12:26 

Не в сети
Супермодератор
Аватара пользователя
Дата регистрации:
15 фев 2012, 16:44
Возраст: 28
Спасибо: 6659 / 2146
Сообщения: 46020
«The world's wackiest scientist has done it again!»



Страна: США
Студия: Walt Disney Pictures
Жанр:фантастика, боевик, комедия, приключения, семейный
Год выпуска: 1997
Продолжительность: 01:11:56

Перевод: Профессиональный (многоголосый, закадровый)
Оригинальная аудиодорожка: английский
Cубтитры: английский, английский (SDH)
Режиссер: Дин Канди / Dean Cundey

В ролях: Рик Морэнис, Ив Гордон, Баг Холл, Робин Бартлетт, Стюарт Пэнкин, Эллисон Мэк, Джэйк Ричардсон, Джо Адамс, Брайсон Ост, Теодор Бордерс...

Описание: На этот раз самому профессору выпал шанс оценить, каково сражаться с тараканами размером с Годзиллу и кататься на игрушечных автомобильчиках. Если дети вовремя не заметят своих маленьких родителей, они рискуют остаться сиротами.





Исходник: DVD5 (custom)
Качество: DVDRip-AVC
Формат: MKV

Видео: 720x574@768x574 (4:3), 25.000 fps, H264 ~ 2320 kbps avg, 0.225 bit/pixel
Аудио 1: 48 kHz, AC3 2 ch, 192 kbps, русский
Аудио 2: 48 kHz, AC3 6 ch, 448 kbps, английский
Формат субтитров: SoftSub (srt)

Раздача от:

Общее
Полное имя: Dorogaya.my.sebya.umenshili.1997.DVDRip-AVC_[Youtracker]_by_avproh.mkv
Формат: Matroska
Версия формата: Version 4 / Version 2
Размер файла: 1,49 Гбайт
Продолжительность: 1 ч. 11 м.
Общий поток: 2962 Кбит/сек
Дата кодирования: UTC 2013-04-24 07:15:38
Программа кодирования: mkvmerge v6.1.0 ('Old Devil') built on Mar2 2013 14:32:37
Библиотека кодирования: libebml v1.3.0 + libmatroska v1.4.0

Видео
Идентификатор: 1
Формат: AVC
Формат/Информация: Advanced Video Codec
Профиль формата: High@L4.1
Параметр CABAC формата: Да
Параметр ReFrames формата: 11 кадров
Идентификатор кодека: V_MPEG4/ISO/AVC
Продолжительность: 1 ч. 11 м.
Битрейт: 2320 Кбит/сек
Ширина: 720 пикселей
Высота: 574 пикселя
Соотношение сторон: 4:3
Соотношение сторон в оригинале: 4:3
Режим частоты кадров: Постоянный
Частота кадров: 25,000 кадров/сек
Цветовое пространство: YUV
Субдискретизация насыщенности: 4:2:0
Битовая глубина: 8 бит
Тип развёртки: Прогрессивная
Бит/(Пиксели*Кадры): 0.225
Размер потока: 1,14 Гбайт (76%)
Библиотека кодирования: x264 core 119 r2106 07efeb4
Настройки программы: cabac=1 / ref=11 / deblock=1:-2:-1 / analyse=0x3:0x113 / me=umh / subme=9 / psy=1 / psy_rd=1.00:0.20 / mixed_ref=1 / me_range=32 / chroma_me=1 / trellis=1 / 8x8dct=1 / cqm=0 / deadzone=21,11 / fast_pskip=0 / chroma_qp_offset=-3 / threads=6 / sliced_threads=0 / nr=0 / decimate=0 / interlaced=0 / bluray_compat=0 / constrained_intra=0 / bframes=8 / b_pyramid=2 / b_adapt=2 / b_bias=0 / direct=3 / weightb=1 / open_gop=0 / weightp=2 / keyint=250 / keyint_min=25 / scenecut=40 / intra_refresh=0 / rc_lookahead=60 / rc=2pass / mbtree=1 / bitrate=2320 / ratetol=1.0 / qcomp=0.60 / qpmin=0 / qpmax=69 / qpstep=4 / cplxblur=20.0 / qblur=0.5 / ip_ratio=1.40 / aq=1:1.00
Язык: English
Default: Да
Forced: Нет

Аудио #1
Идентификатор: 2
Формат: AC-3
Формат/Информация: Audio Coding 3
Расширение режима: CM (complete main)
Параметр Endianness формата: Big
Идентификатор кодека: A_AC3
Продолжительность: 1 ч. 11 м.
Вид битрейта: Постоянный
Битрейт: 192 Кбит/сек
Каналы: 2 канала
Расположение каналов: Front: L R
Частота: 48,0 КГц
Битовая глубина: 16 бит
Метод сжатия: С потерями
Размер потока: 98,8 Мбайт (6%)
Язык: Russian
Default: Да
Forced: Нет

Аудио #2
Идентификатор: 3
Формат: AC-3
Формат/Информация: Audio Coding 3
Расширение режима: CM (complete main)
Параметр Endianness формата: Big
Идентификатор кодека: A_AC3
Продолжительность: 1 ч. 11 м.
Вид битрейта: Постоянный
Битрейт: 448 Кбит/сек
Каналы: 6 каналов
Расположение каналов: Front: L C R, Side: L R, LFE
Частота: 48,0 КГц
Битовая глубина: 16 бит
Метод сжатия: С потерями
Размер потока: 230 Мбайт (15%)
Язык: English
Default: Нет
Forced: Нет

Текст #1
Идентификатор: 4
Формат: UTF-8
Идентификатор кодека: S_TEXT/UTF8
Идентификатор кодека/Информация: UTF-8 Plain Text
Язык: English
Default: Нет
Forced: Нет

Текст #2
Идентификатор: 5
Формат: UTF-8
Идентификатор кодека: S_TEXT/UTF8
Идентификатор кодека/Информация: UTF-8 Plain Text
Заголовок: SDH
Язык: English
Default: Нет
Forced: Нет







реклама партнёра


Вернуться к началу
 Профиль Отправить личное сообщение  
 
   Похожие торренты   Автор   Торрент   Размер 
В этой теме нет новых непрочитанных сообщений. Дорогая, я уменьшил детей / Honey, I Shrunk the Kids [Комедия, семейный, фантастика, 1989] HDRip, Mvo [СТС]

salma3

53 | 11

1.37 ГБ

В этой теме нет новых непрочитанных сообщений. Дорогая, я уменьшил детей / Honey, I Shrunk the Kids [Комедия, приключения, семейный, 1989] BDRip 720p, Mvo

salma3

52 | 5

5.75 ГБ

В этой теме нет новых непрочитанных сообщений. Псы большого города / Big City Blues [Боевик, драма, комедия, приключения, 1997] DVDRip, Avo

salma3

7 | 1

744.69 МБ

В этой теме нет новых непрочитанных сообщений. Мистер Магу / Mr. Magoo [комедия, приключения, семейный, 1997] HDTVRip, Dvo+Avo

salma3

73 | 21

744.19 МБ

В этой теме нет новых непрочитанных сообщений. Дорогая Элеонора / Dear Eleanor [комедия, приключения, драма, 2016] WEB-DLRip, Mvo [iTunes]

salma3

164 | 4

1.37 ГБ

В этой теме нет новых непрочитанных сообщений. Мистер Магу / Mr. Magoo [мелодрама, комедия, приключения, семейный, 1997] WEB-DL 720p, Mvo+Dvo+Avo+Sub

salma3

45 | 4

3.31 ГБ

В этой теме нет новых непрочитанных сообщений. Глаз хищника / Ornens Oje [Исторический, приключения, семейный, 1997] DVDRip, Mvo

salma3

224 | 22

1.62 ГБ


Начать новую тему Ответить на тему  [ 1 сообщение ] 




Для Мосгорсуда, Роскомнадзора и рекламодателей:: mosgorsud-torrent[собачка]yandex.ru