Торрент файл
скачать торрент магнет ссылка Добавлен: 20 апр 2013, 10:25
Размер: 1.46 ГБ
Сидеров: 16
Личеров: 2
Автор

СообщениеДобавлено: 20 апр 2013, 10:25 

Не в сети
Зам. Админа
Аватара пользователя
Дата регистрации:
02 дек 2010, 12:39
Спасибо: 12623 / 214
Сообщения: 28012
Страна: США, Великобритания
Студия: Emmett/Furla Films, Likely Story...
Жанр:комедия
Год выпуска: 2012
Продолжительность: 01:33:33

Перевод: Профессиональный (дублированный)
Оригинальная аудиодорожка: нет
Cубтитры: нет

Режиссер: Стивен Фрирз / Stephen Frears

В ролях: Ребекка Холл, Брюс Уиллис, Кэтрин Зета-Джонс, Джошуа Джексон, Фрэнк Грилло, Винс Вон, Джон Кэрролл Линч, Лаура Препон, Уэйн Пер, Джоэль Мюррей...

Описание: Девушка в 24 года переехала в Лас-Вегас, где нашла работу у добродушного толстяка Динка Хаймовица, содержащего нелегальную букмекерскую контору. Миляга Динк получил хорошее образование, но отличился в родном Нью-Йорке махинациями на ставках, из-за чего и сбежал в игорную столицу США. Игорным бизнесом Хаймовиц продолжал заниматься при помощи своего напарника букмекера Бернарда Роуза, который живет на Лонг-Айленде. Будучи математическими гениями, эти двое сколотили себе состояние на ставках и наивных клиентах, тогда как сама Бет научилась от них многим трюкам.





Исходник: Lay.the.Favorite.2012.720p.BluRay.x264.RoSubbed-SAiMORNY [PublicHD]
Качество: HDRip
Формат: AVI

Видео: 720x384 (1.85:1), 24.000 fps, XviD ~ 1771 kbps avg, 0.267 bit/pixel
Аудио: 48 kHz, AC3 6 ch, 448 kbps, русский

Раздача от:

Общее
Полное имя: Fortuna.Vegasa.2012.P.HDRip_[Youtracker]_by_avproh.avi
Формат: AVI
Формат/Информация: Audio Video Interleave
Размер файла: 1,46 Гбайт
Продолжительность: 1 ч. 33 м.
Общий поток: 2229 Кбит/сек
Программа кодирования: VirtualDubModRus 1.5.10.2 (build 2542/release)
Библиотека кодирования: VirtualDubMod build 2542/release

Видео
Идентификатор: 0
Формат: MPEG-4 Visual
Профиль формата: Advanced Simple@L5
Параметр BVOP формата: 1
Параметр QPel формата: Нет
Параметр GMC формата: Без точки перехода
Параметр матрицы формата: Выборочная
Идентификатор кодека: XVID
Идентификатор кодека/Подсказка: XviD
Продолжительность: 1 ч. 33 м.
Битрейт: 1771 Кбит/сек
Ширина: 720 пикселей
Высота: 384 пикселя
Соотношение сторон: 1,85:1
Частота кадров: 24,000 кадра/сек
Цветовое пространство: YUV
Субдискретизация насыщенности: 4:2:0
Битовая глубина: 8 бит
Тип развёртки: Прогрессивная
Метод сжатия: С потерями
Бит/(Пиксели*Кадры): 0.267
Размер потока: 1,16 Гбайт (79%)
Библиотека кодирования: XviD 65

Аудио
Идентификатор: 1
Формат: AC-3
Формат/Информация: Audio Coding 3
Расширение режима: CM (complete main)
Параметр Endianness формата: Big
Идентификатор кодека: 2000
Продолжительность: 1 ч. 33 м.
Вид битрейта: Постоянный
Битрейт: 448 Кбит/сек
Каналы: 6 каналов
Расположение каналов: Front: L C R, Side: L R, LFE
Частота: 48,0 КГц
Битовая глубина: 16 бит
Метод сжатия: С потерями
Размер потока: 300 Мбайт (20%)
Выравнивание: Разделение по промежуткам
Продолжительность промежутка: 42мс. (1,00 видеокадр)
Время предзагрузки промежутка: 500мс.







реклама партнёра


Вернуться к началу
 Профиль  
 
   Похожие торренты   Автор   Торрент   Размер 
В этой теме нет новых непрочитанных сообщений. Digital Sin - Папина Любимица / Daddy's Favorite (2014) HDRip-AVC

salma3

4 | 0

1.46 ГБ

В этой теме нет новых непрочитанных сообщений. Мой лучший год / My Favorite Year [Комедия, 1982] DVDRip, Mvo

salma3

92 | 6

1.37 ГБ

В этой теме нет новых непрочитанных сообщений. Любимый спорт мужчин / Man's Favorite Sport? [комедия, мелодрама, 1964] WEB-DL 1080p, Mvo

salma3

12 | 5

10.11 ГБ

В этой теме нет новых непрочитанных сообщений. Любимый спорт мужчин / Man's Favorite Sport? [мелодрама, комедия, 1964] WEB-DLRip, Mvo

salma3

46 | 3

1.46 ГБ

В этой теме нет новых непрочитанных сообщений. Любимый спорт мужчин / Man's Favorite Sport? [мелодрама, комедия, 1964] WEB-DL 720p, Mvo

salma3

39 | 22

3.74 ГБ

В этой теме нет новых непрочитанных сообщений. Мой любимый марсианин / My Favorite Martian [фантастика, комедия, семейный, 1999] WEBRip 1080p, Dub

salma3

59 | 16

9.78 ГБ

В этой теме нет новых непрочитанных сообщений. Из Вегаса в Макао 3 / Du cheng feng yun III [драма, комедия, 2016] WEBRip, Avo

salma3

246 | 6

1.45 ГБ


Начать новую тему Ответить на тему  [ 1 сообщение ] 




Для Мосгорсуда, Роскомнадзора и рекламодателей:: mosgorsud-torrent[собачка]yandex.ru