Торрент файл
скачать торрент магнет ссылка Добавлен: 10 апр 2013, 22:02
Размер: 1.46 ГБ
Сидеров: 1
Личеров: 4
Статус: (salma3)
Автор

СообщениеДобавлено: 10 апр 2013, 22:02 

Не в сети
Супермодератор
Аватара пользователя
Дата регистрации:
15 фев 2012, 16:44
Возраст: 27
Спасибо: 5139 / 2089
Сообщения: 17411


Год выхода: 1988
Жанр: Драма
Режиссер: Жан-Клод Бриссо / Jean-Claude Brisseau
В ролях: Бруно Кремер, Франсуа Негре, Венсан Гасперич, Фабьен Бабэ, Мария Луиза Гарсия, Фейрия Делиба, Тьерри Хелен, Сандрин Арно, Виктуар Бафф.

О фильме: Герой фильма, тринадцатилетний Брюно (Vincent Gasperitsch), смышленый и приятный во всех отношениях мальчик, живет в ужасном парижском пригороде среди всякого хамья. Пытаясь повышать свою значимость, водит дружбу со всяким отребьем: жуликами, бандитами, проститутками и извращенцами, при этом тянется к знаниям. Бабушка умерла, мать где-то все время пропадает, в школе скучно и однообразно и … Как то незаметно ребенок превращается в беспризорника, а там и до преступления рукой подать, особенно если компания подходящая. Кульминация истории отнюдь не диккенсовская - в конце фильма Брюно спрашивает свою небесную покровительницу, добрую фею, что ему делать, небесная дама протягивает ему пистолет, и говорит, что лучшим выходом будет застрелиться. Мальчик безропотно выполняет её указание...




Награды: Каннский кинофестиваль, 1988 год: Победитель - Специальный приз молодежного жюри

Выпущено: Франция
Продолжительность: 01:30:23
Перевод: Профессиональный (многоголосый, закадровый)


Кодек: XviD
Качество: DVDRip (Исходник DVD5 - Спасибо rulle1 )
Видео:720x536 (1.34:1), 25 fps, XviD build 73 ~2049 kbps avg, 0.21 bit/pixel
Аудио: 48 kHz, AC3 Dolby Digital, 2/0 (L,R) ch, ~256 kbps[/font]


Общее
Полное имя: E:ВременнаявременнаяZvuk.i.yarost.1988.XviD.DVDRip.MVO_SergV.avi
Формат: AVI
Формат/Информация: Audio Video Interleave
Размер файла: 1,46 Гбайт
Продолжительность: 1 ч. 30 м.
Общий поток: 2315 Кбит/сек
Название фильма: Zvuk.i.yarost.1988.XviD.DVDRip.MVO_SergV
Программа кодирования: VirtualDubMod 1.5.10.3 | http://www.virtualdub-fr.org || (build 2550/release)
Примечание: Рип от SergV

Видео
Идентификатор: 0
Формат: MPEG-4 Visual
Профиль формата: Advanced Simple@L5
Параметр BVOP формата: 4
Параметр QPel формата: Нет
Параметр GMC формата: Без точки перехода
Параметр матрицы формата: Default (MPEG)
Идентификатор кодека: XVID
Идентификатор кодека/Подсказка: XviD
Продолжительность: 1 ч. 30 м.
Битрейт: 2050 Кбит/сек
Ширина: 720 пикселей
Высота: 536 пикселей
Соотношение сторон: 4:3
Частота кадров: 25,000 кадров/сек
Цветовое пространство: YUV
Субдискретизация насыщенности: 4:2:0
Битовая глубина: 8 бит
Тип развёртки: Прогрессивная
Метод сжатия: С потерями
Бит/(Пиксели*Кадры): 0.212
Размер потока: 1,29 Гбайт (89%)
Библиотека кодирования: XviD 73

Аудио
Идентификатор: 1
Формат: AC-3
Формат/Информация: Audio Coding 3
Расширение режима: CM (complete main)
Параметр Endianness формата: Big
Идентификатор кодека: 2000
Продолжительность: 1 ч. 30 м.
Вид битрейта: Постоянный
Битрейт: 256 Кбит/сек
Каналы: 2 канала
Расположение каналов: Front: L R
Частота: 48,0 КГц
Битовая глубина: 16 бит
Метод сжатия: С потерями
Размер потока: 166 Мбайт (11%)
Выравнивание: Разделение по промежуткам
Продолжительность промежутка: 40мс. (1,00 видеокадр)
Время предзагрузки промежутка: 500мс.





Релиз от:




реклама партнёра


Вернуться к началу
 Профиль Отправить личное сообщение  
 
   Похожие торренты   Автор   Торрент   Размер 
В этой теме нет новых непрочитанных сообщений. Ярость зверя / Rage, furia primitiva [ужасы, фантастика, триллер, 1988] DVDRip, Avo

salma3

23 | 5

1.49 ГБ

В этой теме нет новых непрочитанных сообщений. Ярость / Fury [боевик, драма, военный, 2014] WEB-DLRip, dub [Чистый звук]

Dracon

674 | 11

1.37 ГБ

В этой теме нет новых непрочитанных сообщений. Смертельная ярость / Dead Heat [ужасы, фантастика, боевик, комедия, 1988] Blu-ray, Mvo+4Avo

salma3

10 | 6

14.69 ГБ

В этой теме нет новых непрочитанных сообщений. Ярость / Tevar [боевик, триллер, драма, 2015] DVDRip, Dvo+Sub

salma3

16 | 5

1.39 ГБ

В этой теме нет новых непрочитанных сообщений. Крутой / Ярость / Tevar [боевик, триллер, драма, 2015] DVDRip, Mvo+Sub

salma3

43 | 6

2.18 ГБ

В этой теме нет новых непрочитанных сообщений. Ярость в клетке / Caged Fury [драма, криминал, боевик, 1990] DVDRip, Dvo [НТВ+]

salma3

36 | 5

1.47 ГБ

В этой теме нет новых непрочитанных сообщений. Честь и ярость 2: Враждебный захват / Rage and Honor II [боевик, триллер, драма, криминал, 1993] DVDRip, Mvo [Первый канал]

salma3

79 | 23

1.46 ГБ


Начать новую тему Ответить на тему  [ 1 сообщение ] 




Для Мосгорсуда, Роскомнадзора и рекламодателей:: mosgorsud-torrent[собачка]yandex.ru