Торрент файл
скачать торрент магнет ссылка Добавлен: 09 апр 2013, 17:19
Размер: 1.37 ГБ
Сидеров: 109
Личеров: 9
Статус: (salma3)
Автор

СообщениеДобавлено: 09 апр 2013, 17:19 

Не в сети
Супермодератор
Аватара пользователя
Дата регистрации:
15 фев 2012, 16:44
Возраст: 27
Спасибо: 5130 / 2089
Сообщения: 17372

Фантоцци / Fantozzi

Год выхода: 1975
Жанр: Комедия
Режиссер: Лучиано Салче
В ролях: Паоло Вилладжио, Анна Маццамауро, Гиги Редер, Джузеппе Анатрелли, Умберто Д`Орси, Паоло Паолони

О фильме:
Уго Фантоцци всю жизнь работает младшим бухгалтером, ездит на работу в автобусе, никогда не изменял жене. Начальство ни разу не повысило ему зарплату, женщины его не замечают, а коллеги не помнят, как его зовут. Однажды Фантоцци застрял в лифте и просидел там 18 дней - никто даже не заметил его отсутствия. Так больше жить нельзя! С понедельника Фантоцци начнет новую жизнь! Он купит себе новый костюм - черный, в белую полоску, пригласит на свидание самую красивую девушку бухгалтерии, пойдет к директору и потребует повысить зарплату, на целых 10 долларов...



Страна: Италия
Студия: Rizzoli Film S.P.A.
Продолжительность: 01:37:12
Перевод: Профессиональный (многоголосый закадровый)

Файл
Кодек: Xvid
Качество: DVDRip
Видео: 704x400, ~1781 Кбит/с, 25 fps
Звук: АС3, 2 ch, 224 Кбит/с
Субтитры: Нет

Семпл



General
Complete name : F:ФИЛЬМЫ-КОЛЛЕКЦИЯФ-ФFantocci.1975.XviD.DVDRip.avi
Format : AVI
Format/Info : Audio Video Interleave
File size : 1.37 GiB
Duration : 1h 37mn
Overall bit rate : 2 012 Kbps
Writing application : VirtualDubMod 1.5.4.1 (build 2178/release)
Writing library : VirtualDubMod build 2178/release

Video
ID : 0
Format : MPEG-4 Visual
Format profile : Advanced Simple@L5
Format settings, BVOP : 1
Format settings, QPel : No
Format settings, GMC : No warppoints
Format settings, Matrix : Custom
Codec ID : XVID
Codec ID/Hint : XviD
Duration : 1h 37mn
Bit rate : 1 781 Kbps
Width : 704 pixels
Height : 400 pixels
Display aspect ratio : 16:9
Frame rate : 25.000 fps
Color space : YUV
Chroma subsampling : 4:2:0
Bit depth : 8 bits
Scan type : Progressive
Compression mode : Lossy
Bits/(Pixel*Frame) : 0.253
Stream size : 1.21 GiB (89%)
Writing library : XviD 1.2.0.dev47 (UTC 2006-11-01)

Audio
ID : 1
Format : AC-3
Format/Info : Audio Coding 3
Mode extension : CM (complete main)
Format settings, Endianness : Big
Codec ID : 2000
Duration : 1h 37mn
Bit rate mode : Constant
Bit rate : 224 Kbps
Channel(s) : 2 channels
Channel positions : Front: L R
Sampling rate : 48.0 KHz
Bit depth : 16 bits
Compression mode : Lossy
Stream size : 156 MiB (11%)
Alignment : Split accross interleaves
Interleave, duration : 96 ms (2.40 video frames)
Interleave, preload duration : 96 ms
Language : Russian




реклама партнёра


Вернуться к началу
 Профиль Отправить личное сообщение  
 
   Похожие торренты   Автор   Торрент   Размер 
В этой теме нет новых непрочитанных сообщений. Двурушник / Le faux-cul [комедия, криминал, 1975] DVDRip, Avo

salma3

8 | 3

1.46 ГБ

В этой теме нет новых непрочитанных сообщений. Не упускай из виду / La Course a l'echalote [Комедия, 1975] DVDRip, Dub

salma3

18 | 4

1.46 ГБ

В этой теме нет новых непрочитанных сообщений. Кот и мышь / Le chat et la souris [драма, комедия, криминал, 1975] DVDRip, Mvo

salma3

124 | 7

1.46 ГБ

В этой теме нет новых непрочитанных сообщений. Пленник Второй авеню / The Prisoner of Second Avenue [комедия, 1975] DVDRip, Mvo

salma3

18 | 4

1.46 ГБ

В этой теме нет новых непрочитанных сообщений. Сумасшедшая мамаша / Crazy Mama [боевик, драма, комедия, криминал, 1975] DVDRip, Dvo

salma3

23 | 3

1.37 ГБ

В этой теме нет новых непрочитанных сообщений. Девчонка, которую убить мало / Holka na zabití [криминал, комедия, детектив, 1975] DVDRip, Avo

salma3

26 | 3

1.46 ГБ

В этой теме нет новых непрочитанных сообщений. Брэнниган / Brannigan [боевик, комедия, криминал, 1975] BDRip, Mvo

salma3

34 | 3

1.45 ГБ


СообщениеДобавлено: 09 апр 2013, 17:33 

Не в сети
Дата регистрации:
09 апр 2013, 03:19
Спасибо: 0 / 9
Сообщения: 1
Шедевр!!! salma3 Огромное спасибо за серию фильмов о Фантоцци.


Вернуться к началу
 Профиль Отправить личное сообщение  
 

СообщениеДобавлено: 09 апр 2013, 17:46 

Не в сети
Супермодератор
Аватара пользователя
Дата регистрации:
15 фев 2012, 16:44
Возраст: 27
Спасибо: 5130 / 2089
Сообщения: 17372
пожалуйста :) ПРИЯТНОГО ПРОСМОТРА!

_________________


Вернуться к началу
 Профиль Отправить личное сообщение  
 
Начать новую тему Ответить на тему  [ Сообщений: 3 ] 




Для Мосгорсуда, Роскомнадзора и рекламодателей:: mosgorsud-torrent[собачка]yandex.ru