Торрент файл
скачать торрент магнет ссылка Добавлен: 07 апр 2013, 19:32
Размер: 1.46 ГБ
Сидеров: 18
Личеров: 3
Статус: (salma3)
Автор

СообщениеДобавлено: 07 апр 2013, 19:32 

Не в сети
Супермодератор
Аватара пользователя
Дата регистрации:
15 фев 2012, 16:44
Возраст: 27
Спасибо: 5121 / 2089
Сообщения: 17296

Изнанка города / Wrong Side Of Town

Год выпуска: 2010
Жанр:Боевик, комедия, криминал
Выпущено: США, Films In Motion
Продолжительность: 01:25:13
Перевод: Профессиональный [многоголосый]

Режиссер: Дэвид ДеФалко

В ролях: Сторми, Дэйв Батиста, Джа Рул, Роб Ван Дам, Кэти Найтен, Рендал Ридер, Луис Хертэм, Лара Грис, Скотт Л. Шварц, Эрик Браун

О фильме:
Бывший морской пехотинец собирает команду сослуживцев и начинает охоту за похитителями своей дочери.

Качество: НDRip
Видео: XviD, 1795 Кбит/с, 720x400
Аудио 1: Русский (AC3, 2 ch, 192 Кбит/с),
Аудио 2: Английский (AC3, 6 ch, 448 Кбит/с)

Формат: AVI
Формат/Информация: Audio Video Interleave
Размер файла: 1,46 Гбайт
Продолжительность: 1 ч. 25 м.
Общий поток: 2449 Кбит/сек
Название фильма: Изнанка города / Wrong Side of Town (2010)
Режиссёр: miha2154
Программа кодирования: VirtualDubMod 1.5.10.2 (build 2540/release)
Библиотека кодирования: VirtualDubMod build 2540/release

Видео
Идентификатор: 0
Формат: MPEG-4 Visual
Профиль формата: Advanced Simple@L5
Параметр BVOP формата: 2
Параметр QPel формата: Нет
Параметр GMC формата: Без точки перехода
Параметр матрицы формата: Default (MPEG)
Режим смешивания: Сжатый битовый поток
Идентификатор кодека: XVID
Идентификатор кодека/Подсказка: XviD
Продолжительность: 1 ч. 25 м.
Битрейт: 1701 Кбит/сек
Ширина: 720 пикселей
Высота: 400 пикселей
Соотношение сторон: 16:9
Частота кадров: 23,976 кадра/сек
Цветовое пространство: YUV
Субдискретизация насыщенности: 4:2:0
Битовая глубина: 8 бит
Тип развёртки: Прогрессивная
Метод сжатия: С потерями
Бит/(Пиксели*Кадры): 0.246
Размер потока: 1,01 Гбайт (69%)
Библиотека кодирования: XviD 1.1.0 (UTC 2005-11-22)

Аудио #1
Идентификатор: 1
Формат: AC-3
Формат/Информация: Audio Coding 3
Расширение режима: CM (complete main)
Идентификатор кодека: 2000
Продолжительность: 1 ч. 25 м.
Вид битрейта: Постоянный
Битрейт: 192 Кбит/сек
Каналы: 2 канала
Расположение каналов: Front: L R
Частота: 48,0 КГц
Битовая глубина: 16 бит
Метод сжатия: С потерями
Задержка видео: 14 мс.
Размер потока: 117 Мбайт (8%)
Выравнивание: Разделение по промежуткам
Заголовок: Профессиональный (многоголосый, закадровый) Перец

Аудио #2
Идентификатор: 2
Формат: AC-3
Формат/Информация: Audio Coding 3
Расширение режима: CM (complete main)
Идентификатор кодека: 2000
Продолжительность: 1 ч. 25 м.
Вид битрейта: Постоянный
Битрейт: 448 Кбит/сек
Каналы: 6 каналов
Расположение каналов: Front: L C R, Side: L R, LFE
Частота: 48,0 КГц
Битовая глубина: 16 бит
Метод сжатия: С потерями
Размер потока: 273 Мбайт (18%)
Выравнивание: Разделение по промежуткам
Заголовок: Английский






реклама партнёра


Вернуться к началу
 Профиль Отправить личное сообщение  
 
   Похожие торренты   Автор   Торрент   Размер 
В этой теме нет новых непрочитанных сообщений. Five Finger Death Punch - The Wrong Side Of Heaven And The Righteous Side Of Hell, Volume 2 [2013, Groove Metal, Nu-Metal, MP3]

PriZraK

2 | 2

100.84 МБ

В этой теме нет новых непрочитанных сообщений. Five Finger Death Punch - The Wrong Side of Heaven And The Righteous Side of Hell, Volume 1 (Deluxe Edition, 2CD) [2013, Groove Metal, Nu-Metal, MP3]

PriZraK

4 | 2

280.36 МБ

В этой теме нет новых непрочитанных сообщений. Неправильные копы / Wrong cops [Комедия, криминал, 2013] WEB-DL 720p, Mvo

Dracon

354 | 15

2.75 ГБ

В этой теме нет новых непрочитанных сообщений. Неправильные копы / Wrong cops [Комедия, Криминал, 2013] DVDRip, Avo

salma3

10 | 1

715.91 МБ

В этой теме нет новых непрочитанных сообщений. Неправильные копы / Wrong cops [Комедия, криминал, 2013] WEB-DLRip, Mvo

Dracon

1295 | 64

1.37 ГБ

В этой теме нет новых непрочитанных сообщений. Романтические города: Карнавал в Венеции / Romantic City: Carnival in Venice (Жан Люк Беррау) [2010, Документальный, демо, релакс, видовой, путешествие, туризм, города, BDRip 720p]

Nickolas3435

21 | 6

2.16 ГБ

В этой теме нет новых непрочитанных сообщений. Драконы Нью-Йорка / Revenge of the Green Dragons (Вэй Кеунг Лау, Эндрю Лу) [Боевик, драма, криминал, 2014] НDRip, Dvo

Dracon

414 | 13

1.37 ГБ


Начать новую тему Ответить на тему  [ 1 сообщение ] 




Для Мосгорсуда, Роскомнадзора и рекламодателей:: mosgorsud-torrent[собачка]yandex.ru