Торрент файл
скачать торрент магнет ссылка Добавлен: 07 апр 2013, 18:15
Размер: 2.18 ГБ
Сидеров: 9
Личеров: 2
Автор

СообщениеДобавлено: 07 апр 2013, 18:15 

Не в сети
Зам. Админа
Аватара пользователя
Дата регистрации:
02 дек 2010, 12:39
Спасибо: 12461 / 214
Сообщения: 27968


«Ни имён. Ни закона. Ни жалости.»

Год выпуска: 2013
Производство: США / Langley Park Productions, Lin Pictures, Village Roadshow Pictures
Жанр:Боевик, Триллер, Драма, Криминал
Перевод: Дублированный
Субтитры: Вшитые отключаемые
Язык субтитров: Русские, Английские

Дата мировой премьеры: 9 января 2013
Дата российской премьеры: 24 января 2013, «Каро-Премьер»
Дата выхода DVD релиза: 30 апреля 2013, «CP Дистрибуция»
Дата выхода Blu-Ray релиза: 30 апреля 2013, «CP Дистрибуция»

Режиссер: Рубен Флейшер
Актеры: Джош Бролин, Райан Гослинг, Ник Нолти, Эмма Стоун,Энтони Маки, Джованни Рибизи, Майкл Пенья, Роберт Патрик, Шон Пенн, Холт МакКэллани

Описание фильма:
Лос-Анджелес, 1949 год. Уроженец Бруклина, жестокий главарь банды Микки Коэн держит город в ежовых рукавицах, собирая «грязные» деньги от торговли наркотиками, оружием и проституции, и — если все пойдет, как надо, — к Западу от Чикаго мышь не пискнет без его ведома. Защищают его не только его же головорезы, но и находящиеся у него «на крючке» полиция и политики. Этого хватит, чтобы запугать даже самых смелых, закаленных улицей копов… кроме, пожалуй, небольшой тайной группы сотрудников полицейского департамента Лос-Анджелеса во главе с сержантом Джоном О’Мара и Джерри Вутерсом, которые объединились, чтобы попытаться уничтожить преступный мир Коэна.

Продолжительность: 01:52:54
Качество видео: HDRip
Автор рипа: MysTeRy

Видеокодек: MPEG-4 AVC/H.264
Битрейт видео: ~1992 Кбит/сек
Размер кадра: 1024 x 426
Аудио #1: Русский (Dolby AC3, 6 ch) 384 Кбит/сек
Аудио #2: Английский (Dolby AC3, 6 ch) 384 Кбит/сек


Общее
Уникальный идентификатор: 239070588539677949855772254720386777486 (0xB3DB520E31AFA5018BC7C5782FE1C18E)
Полное имя: H:Ohotniki.na gangsterov.2013.D.x264.HDRip-MysTeRy.mkv
Формат: Matroska
Версия формата: Version 4 / Version 2
Размер файла: 2,18 Гбайт
Продолжительность: 1 ч. 52 м.
Общий поток: 2762 Кбит/сек
Название фильма: Ohotniki.na gangsterov.2013.D.x264.HDRip-MysTeRy
Дата кодирования: UTC 2013-04-07 12:24:17
Программа кодирования: mkvmerge v6.1.0 ('Old Devil') built on Mar2 2013 14:32:37
Библиотека кодирования: libebml v1.3.0 + libmatroska v1.4.0

Видео
Идентификатор: 1
Формат: AVC
Формат/Информация: Advanced Video Codec
Профиль формата: High@L4.1
Параметр CABAC формата: Да
Параметр ReFrames формата: 11 кадров
Идентификатор кодека: V_MPEG4/ISO/AVC
Продолжительность: 1 ч. 52 м.
Битрейт: 1992 Кбит/сек
Ширина: 1024 пикселя
Высота: 426 пикселей
Соотношение сторон: 2,40:1
Частота кадров: 23,976 кадра/сек
Цветовое пространство: YUV
Субдискретизация насыщенности: 4:2:0
Битовая глубина: 8 бит
Тип развёртки: Прогрессивная
Бит/(Пиксели*Кадры): 0.190
Размер потока: 1,53 Гбайт (70%)
Заголовок: ENCODER........: MysTeRy
Библиотека кодирования: x264 core 130 r2273 b3065e6
Настройки программы: cabac=1 / ref=11 / deblock=1:-3:-3 / analyse=0x3:0x133 / me=umh / subme=10 / psy=1 / psy_rd=1.00:0.10 / mixed_ref=1 / me_range=32 / chroma_me=1 / trellis=2 / 8x8dct=1 / cqm=0 / deadzone=21,11 / fast_pskip=0 / chroma_qp_offset=-3 / threads=12 / lookahead_threads=2 / sliced_threads=0 / nr=0 / decimate=0 / interlaced=0 / bluray_compat=0 / constrained_intra=0 / bframes=8 / b_pyramid=2 / b_adapt=2 / b_bias=0 / direct=3 / weightb=1 / open_gop=0 / weightp=2 / keyint=250 / keyint_min=23 / scenecut=40 / intra_refresh=0 / rc_lookahead=60 / rc=2pass / mbtree=0 / bitrate=1992 / ratetol=1.0 / qcomp=0.70 / qpmin=0 / qpmax=69 / qpstep=4 / cplxblur=20.0 / qblur=0.5 / vbv_maxrate=50000 / vbv_bufsize=61400 / nal_hrd=none / ip_ratio=1.40 / pb_ratio=1.30 / aq=1:0.90
Язык: English
Default: Да
Forced: Нет
Основные цвета: BT.709-5, BT.1361, IEC 61966-2-4, SMPTE RP177
Характеристики трансфера: BT.709-5, BT.1361
Коэффициенты матрицы: BT.709-5, BT.1361, IEC 61966-2-4 709, SMPTE RP177

Аудио #1
Идентификатор: 2
Формат: AC-3
Формат/Информация: Audio Coding 3
Расширение режима: CM (complete main)
Идентификатор кодека: A_AC3
Продолжительность: 1 ч. 52 м.
Вид битрейта: Постоянный
Битрейт: 384 Кбит/сек
Каналы: 6 каналов
Расположение каналов: Front: L C R, Side: L R, LFE
Частота: 48,0 КГц
Битовая глубина: 16 бит
Метод сжатия: С потерями
Размер потока: 310 Мбайт (14%)
Заголовок: Dub
Язык: Russian
Default: Да
Forced: Нет

Аудио #2
Идентификатор: 3
Формат: AC-3
Формат/Информация: Audio Coding 3
Расширение режима: CM (complete main)
Идентификатор кодека: A_AC3
Продолжительность: 1 ч. 52 м.
Вид битрейта: Постоянный
Битрейт: 384 Кбит/сек
Каналы: 6 каналов
Расположение каналов: Front: L C R, Side: L R, LFE
Частота: 48,0 КГц
Битовая глубина: 16 бит
Метод сжатия: С потерями
Размер потока: 310 Мбайт (14%)
Заголовок: Original
Язык: English
Default: Нет
Forced: Нет

Текст #1
Идентификатор: 4
Формат: UTF-8
Идентификатор кодека: S_TEXT/UTF8
Идентификатор кодека/Информация: UTF-8 Plain Text
Заголовок: Forced
Язык: Russian
Default: Нет
Forced: Нет

Текст #2
Идентификатор: 5
Формат: UTF-8
Идентификатор кодека: S_TEXT/UTF8
Идентификатор кодека/Информация: UTF-8 Plain Text
Язык: Russian
Default: Нет
Forced: Нет

Текст #3
Идентификатор: 6
Формат: UTF-8
Идентификатор кодека: S_TEXT/UTF8
Идентификатор кодека/Информация: UTF-8 Plain Text
Язык: English
Default: Нет
Forced: Нет

Меню
00:00:00.000: en:00:00:00.000
00:09:53.635: en:00:09:53.635
00:20:51.167: en:00:20:51.167
00:28:36.173: en:00:28:36.173
00:39:22.860: en:00:39:22.860
00:49:25.462: en:00:49:25.462
00:59:59.262: en:00:59:59.262
01:09:23.493: en:01:09:23.493
01:20:05.259: en:01:20:05.259
01:31:01.539: en:01:31:01.539
01:38:50.341: en:01:38:50.341
01:44:11.370: en:01:44:11.370

avs [info]: 1024x426p 1:1 @ 2500000/104271 fps (cfr)
x264 [info]: using SAR=1/1
x264 [info]: using cpu capabilities: MMX2 SSE2Fast SSSE3 SSE4.2 AVX
x264 [info]: profile High, level 4.1

x264 [info]: frame I:1757Avg QP:12.19size: 69166
x264 [info]: frame P:43627 Avg QP:14.62size: 20909
x264 [info]: frame B:117049 Avg QP:17.36size:5581
x264 [info]: consecutive B-frames:4.2%6.0%8.5% 49.4% 12.3% 15.0%2.2%2.1%0.2%
x264 [info]: mb II16..4: 16.5% 54.8% 28.6%
x264 [info]: mb PI16..4:3.1% 12.6%1.7%P16..4: 36.9% 21.8% 16.9%0.8%0.3%skip: 5.8%
x264 [info]: mb BI16..4:0.2%0.8%0.1%B16..8: 35.8% 13.4%3.7%direct: 5.3%skip:40.6%L0:41.3% L1:45.6% BI:13.1%
x264 [info]: 8x8 transform intra:68.8% inter:47.9%
x264 [info]: direct mvsspatial:98.3% temporal:1.7%
x264 [info]: coded y,uvDC,uvAC intra: 82.1% 74.3% 64.6% inter: 22.5% 18.4% 11.3%
x264 [info]: i16 v,h,dc,p: 49% 14% 21% 17%
x264 [info]: i8 v,h,dc,ddl,ddr,vr,hd,vl,hu: 13% 11% 19%7%9% 10% 10% 10% 11%
x264 [info]: i4 v,h,dc,ddl,ddr,vr,hd,vl,hu: 14% 10%7%9% 13% 13% 12% 10% 12%
x264 [info]: i8c dc,h,v,p: 56% 19% 16%9%
x264 [info]: Weighted P-Frames: Y:2.8% UV:1.3%
x264 [info]: ref P L0: 50.8%7.6% 17.2%6.5%5.0%3.5%3.0%1.7%1.6%1.4%1.4%0.3%0.0%
x264 [info]: ref B L0: 76.6% 11.6%4.7%2.2%1.5%1.4%0.9%0.6%0.4%0.2%
x264 [info]: ref B L1: 94.0%6.0%
x264 [info]: kb/s:1992.12

x264 [total]: encoded 162433 frames, 11.23 fps, 1992.12 kb/s








реклама партнёра


Вернуться к началу
 Профиль  
 
   Похожие торренты   Автор   Торрент   Размер 
В этой теме нет новых непрочитанных сообщений. Отряд самоубийц / Suicide Squad [фантастика, боевик, триллер, комедия, криминал, приключения, 2016] WEBRip] Dub [чистый звук]

salma3

588 | 2313

2.05 ГБ

В этой теме нет новых непрочитанных сообщений. Кровавая месть / In the Blood [триллер, боевик, криминал, 2013] HDRip, dub [Чистый звук]

Dracon

1693 | 63

1.37 ГБ

В этой теме нет новых непрочитанных сообщений. Добро пожаловать в капкан / Welcome to the Punch [Боевик, триллер, криминал, приключения, 2013] HDRip, dub [Чистый звук]

Dracon

979 | 13

1.36 ГБ

В этой теме нет новых непрочитанных сообщений. Отряд самоубийц / Suicide Squad [фантастика, боевик, триллер, 2016] WEB-DL 1080p, Dub [чистый звук]

salma3

5831 | 1033

4.68 ГБ

В этой теме нет новых непрочитанных сообщений. Саботаж / Sabotage [боевик, триллер, драма, криминал, 2014] HDRip, dub [Чистый звук]

Dracon

1104 | 9

2.05 ГБ

В этой теме нет новых непрочитанных сообщений. Заложница 3 / Taken 3 (Оливье Мегатон) [боевик, триллер, драма, криминал, 2012] HDRip, dub [чистый звук / EXTENDED]

Dracon

7 | 4

1.37 ГБ

В этой теме нет новых непрочитанных сообщений. Ганмен / The Gunman (Пьер Морель) [Боевик, Триллер, Драма, Криминал, Детектив, 2014] HDRip, dub [Чистый звук]

Dracon

1 | 0

2.06 ГБ


Начать новую тему Ответить на тему  [ 1 сообщение ] 




Для Мосгорсуда, Роскомнадзора и рекламодателей:: mosgorsud-torrent[собачка]yandex.ru