Торрент файл
скачать торрент магнет ссылка Добавлен: 06 апр 2013, 22:13
Размер: 1.46 ГБ
Сидеров: 27
Личеров: 4
Статус: (salma3)
Автор

СообщениеДобавлено: 06 апр 2013, 22:13 

Не в сети
Супермодератор
Аватара пользователя
Дата регистрации:
15 фев 2012, 16:44
Возраст: 27
Спасибо: 5143 / 2090
Сообщения: 17495

Палач / Каратель / The Punisher

Год выхода: 1989
Жанр: Боевик, Триллер, Криминал
Режиссер: Марк Голдблатт / Mark Goldblatt
В ролях: Дольф Лундгрен, Луис Госсет мл., Ерун Краббе, Ким Мийори, Брайан Маршалл, Нэнси Эверхард, Бэрри Отто, Брайан Руни, Кенджи Ямаки.

О фильме:
Полицейский Фрэнк Кастл с трудом пережил гибель семьи, его жена и дочь сгорели живьем во взорванном автомобиле. Теперь он стал судьей и палачом 125 гангстеров, которых он разыскал и приговорил к смерти. Его невозможно остановить. Но у него слишком много врагов…


Страна: США, Австралия
Продолжительность: 01:29:05
Перевод: Профессиональный (двухголосый закадровый): Viking Video, Авторский (одноголосый закадровый): Андрей Гаврилов

Файл
Кодек: Xvid
Качество: HDRip c [BDRip 1080p]
Видео: 704x384, 23.976 fps, 1954 Kbps
Аудио 1: AC3, 2 ch, 192.00 kbps..dvo
Аудио 2: AC3, 2 ch, 192.00 kbps..avo
General
Complete name: Palach.1989.HDRip.avi
Format: AVI
Format/Info: Audio Video Interleave
File size: 1.46 GiB
Duration: 1h 29mn
Overall bit rate: 2 353 Kbps
Writing application: VirtualDubMod 1.5.10.2 (build 2542/release)
Writing library: VirtualDubMod build 2542/release

Video
ID: 0
Format: MPEG-4 Visual
Format profile: Advanced Simple@L5
Format settings, BVOP: 1
Format settings, QPel: No
Format settings, GMC: No warppoints
Format settings, Matrix: Custom
Codec ID: XVID
Codec ID/Hint: XviD
Duration: 1h 29mn
Bit rate: 1 954 Kbps
Width: 704 pixels
Height: 384 pixels
Display aspect ratio: 1.85:1
Frame rate: 23.976 fps
Color space: YUV
Chroma subsampling: 4:2:0
Bit depth: 8 bits
Scan type: Progressive
Compression mode: Lossy
Bits/(Pixel*Frame): 0.302
Stream size: 1.22 GiB (83%)
Writing library: XviD 65

Audio #1
ID: 1
Format: AC-3
Format/Info: Audio Coding 3
Mode extension: CM (complete main)
Format settings, Endianness: Big
Codec ID: 2000
Duration: 1h 29mn
Bit rate mode: Constant
Bit rate: 192 Kbps
Channel(s): 2 channels
Channel positions: Front: L R
Sampling rate: 48.0 KHz
Bit depth: 16 bits
Compression mode: Lossy
Delay relative to video: 1s 839ms
Stream size: 122 MiB (8%)
Alignment: Split accross interleaves
Interleave, duration: 42 ms (1.00 video frame)
Interleave, preload duration: 500 ms

Audio #2
ID: 2
Format: AC-3
Format/Info: Audio Coding 3
Mode extension: CM (complete main)
Format settings, Endianness: Big
Codec ID: 2000
Duration: 1h 29mn
Bit rate mode: Constant
Bit rate: 192 Kbps
Channel(s): 2 channels
Channel positions: Front: L R
Sampling rate: 48.0 KHz
Bit depth: 16 bits
Compression mode: Lossy
Delay relative to video: 1s 839ms
Stream size: 122 MiB (8%)
Alignment: Split accross interleaves
Interleave, duration: 42 ms (1.00 video frame)
Interleave, preload duration: 500 ms



Релиз от: Leon-masl




реклама партнёра


Вернуться к началу
 Профиль Отправить личное сообщение  
 
   Похожие торренты   Автор   Торрент   Размер 
В этой теме нет новых непрочитанных сообщений. Секретные Материалы Мстителей: Черная Вдова и Каратель / Avengers Confidential: Black Widow & Punisher (Кенити Симидзу) [2014, Мультфильм, HDRip]

Nickolas3435

142 | 5

1.37 ГБ

В этой теме нет новых непрочитанных сообщений. Секретные материалы Мстителей: Черная Вдова и Каратель / Avengers Confidential: Black Widow & Punisher (Кенити Симидзу) [2014, мультфильм, фантастика, BDRip 720p]

Nickolas3435

163 | 9

2.09 ГБ

В этой теме нет новых непрочитанных сообщений. Палач (Висельник) / Hangman [Триллер, 2015] HDRip, avo

Dracon

26 | 3

1.26 ГБ

В этой теме нет новых непрочитанных сообщений. Палач (Вячеслав Никифоров) (Серии 1-10 из 10 ) [2014 , Детектив, криминал, триллер , HDTVRip 1080p]

Враг Нароода

1 | 1

26.57 ГБ

В этой теме нет новых непрочитанных сообщений. Ближайший родственник / Next of Kin [триллер, криминал, боевик, 1989] BDRip 720p, Mvo+Avo+Sub

salma3

93 | 1

4.47 ГБ

В этой теме нет новых непрочитанных сообщений. Ближайший родственник / Next of Kin [триллер, криминал, боевик, 1989] BDRip 1080p, Mvo+Avo+Sub

salma3

20 | 0

12.75 ГБ

В этой теме нет новых непрочитанных сообщений. Сделано в Лос-Анджелесе / L.A. Takedown [боевик, триллер, драма, криминал, 1989] DVDRip, Avo

salma3

47 | 7

706.41 МБ


Начать новую тему Ответить на тему  [ 1 сообщение ] 




Для Мосгорсуда, Роскомнадзора и рекламодателей:: mosgorsud-torrent[собачка]yandex.ru