Торрент файл
скачать торрент магнет ссылка Добавлен: 03 апр 2013, 10:13
Размер: 1.45 ГБ
Сидеров: 6
Личеров: 2
Автор

СообщениеДобавлено: 03 апр 2013, 10:13 

Не в сети
Зам. Админа
Аватара пользователя
Дата регистрации:
02 дек 2010, 12:39
Спасибо: 12461 / 214
Сообщения: 27968
«Ни имён. Ни закона. Ни жалости.»






Год выпуска: 2013
Жанр:Боевик, триллер, драма, криминал
Выпущено: США, Warner Bros
Продолжительность: 01:52:52
Перевод: Дублированный (iTunes Russia) -Чистый звук
Субтитры:Русский (Full, Forced)

Режиссер: Рубен Флейшер

В ролях: Джош Бролин, Райан Гослинг, Ник Нолти, Эмма Стоун, Энтони Маки, Джованни Рибизи, Майкл Пенья, Роберт Патрик, Шон Пенн, Холт МакКэллани

Описание: Лос-Анджелес, 1949 год. Уроженец Бруклина, жестокий главарь банды Микки Коэн держит город в ежовых рукавицах, собирая «грязные» деньги от торговли наркотиками, оружием и проституции, и — если все пойдет, как надо, — к Западу от Чикаго мышь не пискнет без его ведома. Защищают его не только его же головорезы, но и находящиеся у него «на крючке» полиция и политики. Этого хватит, чтобы запугать даже самых смелых, закаленных улицей копов… кроме, пожалуй, небольшой тайной группы сотрудников полицейского департамента Лос-Анджелеса во главе с сержантом Джоном О’Мара и Джерри Вутерсом, которые объединились, чтобы попытаться уничтожить преступный мир Коэна.



Качество: HDRip-AVC (Исходник WEB-DL 720p)
Видео: 1024 x 426, 1453 Кбит/сек
Аудио : Русский (AC3, 6 ch, 384 Кбит/с)
Автор: Zov72
Формат: Matroska
Версия формата: Version 4 / Version 2
Размер файла: 1,45 Гбайт
Продолжительность: 1 ч. 52 м.
Общий поток: 1838 Кбит/сек
Дата кодирования: UTC 2013-04-02 09:28:41
Программа кодирования: mkvmerge v6.1.0 ('Old Devil') built on Mar2 2013 14:32:37
Библиотека кодирования: libebml v1.3.0 + libmatroska v1.4.0

Видео
Идентификатор: 1
Формат: AVC
Формат/Информация: Advanced Video Codec
Профиль формата: High@L4.1
Параметр CABAC формата: Да
Параметр ReFrames формата: 11 кадров
Идентификатор кодека: V_MPEG4/ISO/AVC
Продолжительность: 1 ч. 52 м.
Битрейт: 1453 Кбит/сек
Ширина: 1024 пикселя
Высота: 426 пикселей
Соотношение сторон: 2,40:1
Частота кадров: 23,976 кадра/сек
Цветовое пространство: YUV
Субдискретизация насыщенности: 4:2:0
Битовая глубина: 8 бит
Тип развёртки: Прогрессивная
Бит/(Пиксели*Кадры): 0.139
Размер потока: 1,12 Гбайт (77%)
Библиотека кодирования: x264 core 130 r2273 b3065e6
Настройки программы: cabac=1 / ref=11 / deblock=1:-2:-1 / analyse=0x3:0x133 / me=umh / subme=9 / psy=1 / psy_rd=1.05:0.10 / mixed_ref=1 / me_range=24 / chroma_me=1 / trellis=2 / 8x8dct=1 / cqm=0 / deadzone=21,11 / fast_pskip=0 / chroma_qp_offset=-3 / threads=12 / lookahead_threads=2 / sliced_threads=0 / nr=0 / decimate=1 / interlaced=0 / bluray_compat=0 / constrained_intra=0 / bframes=8 / b_pyramid=2 / b_adapt=2 / b_bias=0 / direct=3 / weightb=1 / open_gop=0 / weightp=2 / keyint=240 / keyint_min=23 / scenecut=40 / intra_refresh=0 / rc=2pass / mbtree=0 / bitrate=1453 / ratetol=1.0 / qcomp=0.60 / qpmin=0 / qpmax=69 / qpstep=4 / cplxblur=20.0 / qblur=0.5 / ip_ratio=1.40 / pb_ratio=1.30 / aq=1:0.90
Язык: English
Default: Да
Forced: Нет

Аудио
Идентификатор: 2
Формат: AC-3
Формат/Информация: Audio Coding 3
Расширение режима: CM (complete main)
Параметр Endianness формата: Big
Идентификатор кодека: A_AC3
Продолжительность: 1 ч. 52 м.
Вид битрейта: Постоянный
Битрейт: 384 Кбит/сек
Каналы: 6 каналов
Расположение каналов: Front: L C R, Side: L R, LFE
Частота: 48,0 КГц
Битовая глубина: 16 бит
Метод сжатия: С потерями
Размер потока: 310 Мбайт (21%)
Язык: Russian
Default: Да
Forced: Нет

Текст #1
Идентификатор: 3
Формат: UTF-8
Идентификатор кодека: S_TEXT/UTF8
Идентификатор кодека/Информация: UTF-8 Plain Text
Заголовок: Forced
Язык: Russian
Default: Да
Forced: Нет

Текст #2
Идентификатор: 4
Формат: UTF-8
Идентификатор кодека: S_TEXT/UTF8
Идентификатор кодека/Информация: UTF-8 Plain Text
Заголовок: Full
Язык: Russian
Default: Нет
Forced: Нет

Меню
00:00:00.000: en:1
00:09:52.000: en:2
00:20:50.000: en:3
00:28:35.000: en:4
00:39:21.000: en:5
00:49:24.000: en:6
00:59:58.000: en:7
01:09:22.000: en:8
01:20:04.000: en:9
01:31:00.000: en:10
01:38:49.000: en:11
01:44:09.000: en:12





реклама партнёра


Вернуться к началу
 Профиль  
 
   Похожие торренты   Автор   Торрент   Размер 
В этой теме нет новых непрочитанных сообщений. Отряд самоубийц / Suicide Squad [фантастика, боевик, триллер, комедия, криминал, приключения, 2016] WEBRip] Dub [чистый звук]

salma3

588 | 2313

2.05 ГБ

В этой теме нет новых непрочитанных сообщений. Кровавая месть / In the Blood [триллер, боевик, криминал, 2013] HDRip, dub [Чистый звук]

Dracon

1693 | 63

1.37 ГБ

В этой теме нет новых непрочитанных сообщений. Добро пожаловать в капкан / Welcome to the Punch [Боевик, триллер, криминал, приключения, 2013] HDRip, dub [Чистый звук]

Dracon

979 | 13

1.36 ГБ

В этой теме нет новых непрочитанных сообщений. Отряд самоубийц / Suicide Squad [фантастика, боевик, триллер, 2016] WEB-DL 1080p, Dub [чистый звук]

salma3

5831 | 1033

4.68 ГБ

В этой теме нет новых непрочитанных сообщений. Саботаж / Sabotage [боевик, триллер, драма, криминал, 2014] HDRip, dub [Чистый звук]

Dracon

1104 | 9

2.05 ГБ

В этой теме нет новых непрочитанных сообщений. Заложница 3 / Taken 3 (Оливье Мегатон) [боевик, триллер, драма, криминал, 2012] HDRip, dub [чистый звук / EXTENDED]

Dracon

7 | 4

1.37 ГБ

В этой теме нет новых непрочитанных сообщений. Ганмен / The Gunman (Пьер Морель) [Боевик, Триллер, Драма, Криминал, Детектив, 2014] HDRip, dub [Чистый звук]

Dracon

1 | 0

2.06 ГБ


Начать новую тему Ответить на тему  [ 1 сообщение ] 




Для Мосгорсуда, Роскомнадзора и рекламодателей:: mosgorsud-torrent[собачка]yandex.ru