Торрент файл
скачать торрент магнет ссылка Добавлен: 02 апр 2013, 21:38
Размер: 1.37 ГБ
Сидеров: 10
Личеров: 11
Статус: (salma3)
Автор

СообщениеДобавлено: 02 апр 2013, 21:38 

Не в сети
Супермодератор
Аватара пользователя
Дата регистрации:
15 фев 2012, 16:44
Возраст: 27
Спасибо: 5132 / 2089
Сообщения: 17376

Рейд возмездия / Active Stealth

Страна: США
Производство:Phoenician Entertainment, Synthetic Filmwerx
Жанр:Боевик
Год выпуска: 1999
Продолжительность: 01:35:13
Перевод: Профессиональный многоголосый
Оригинальная аудиодорожка: нет

Cубтитры: нет
Режиссер: Фред Олен Рэй
В ролях: Дэниэл Болдуин, Фред Уильямсон, Ханнес Янике, Лиза Видал, Чик Веннера, Тим Эбелл, Пол Майкл Робинсон, Джо Лала, Терри Фанк, Шэннон Уирри, Лэдд Йорк

Описание:Во время проведения операции по освобождению заложников, попавших в руки одного из наркобаронов Центральной Америки Сальваторе, рейнджеры отряда специального назначения «Си» вынуждены оставить на поле боя раненого лейтенанта Ривкина. Под предлогом спасения попавшего в беду товарища полковник Рейнолдс отправляет специальную группу, возглавляемую капитаном Мерфом. Операция настолько секретна, что в качестве средства доставки в центральноамериканские джунгли решили использовать новейший секретнейший истребитель-бомбардировщик «Стэлс».



Исходник: DVD5 R5
Тип релиза: DVDRip
Контейнер: AVI
Видео: 704x528 (1.33:1), 23.976 fps, XviD ~1601 kbps avg 0.18 bit/pixel
Аудио: 48 kHz, AC3 6.0 ~ 448.00 kbps

Общее
Полное имя: D:РаздачиReyd.vozmezdija.1999.XviD.DVDRip.avi
Формат: AVI
Формат/Информация: Audio Video Interleave
Размер файла: 1,37 Гбайт
Продолжительность: 1 ч. 35 м.
Общий поток: 2059 Кбит/сек
Программа кодирования: VirtualDubMod 1.5.10.2 (build 2540/release)
Библиотека кодирования: VirtualDubMod build 2540/release

Видео
Идентификатор: 0
Формат: MPEG-4 Visual
Профиль формата: Advanced Simple@L5
Параметр BVOP формата: 2
Параметр QPel формата: Нет
Параметр GMC формата: Без точки перехода
Параметр матрицы формата: Default (MPEG)
Идентификатор кодека: XVID
Идентификатор кодека/Подсказка: XviD
Продолжительность: 1 ч. 35 м.
Битрейт: 1602 Кбит/сек
Ширина: 704 пикселя
Высота: 528 пикселей
Соотношение сторон: 4:3
Частота кадров: 23,976 кадра/сек
Цветовое пространство: YUV
Субдискретизация насыщенности: 4:2:0
Битовая глубина: 8 бит
Тип развёртки: Прогрессивная
Метод сжатия: С потерями
Бит/(Пиксели*Кадры): 0.180
Размер потока: 1,07 Гбайт (78%)
Библиотека кодирования: XviD 1.2.1 (UTC 2008-12-04)

Аудио
Идентификатор: 1
Формат: AC-3
Формат/Информация: Audio Coding 3
Расширение режима: CM (complete main)
Параметр Endianness формата: Big
Идентификатор кодека: 2000
Продолжительность: 1 ч. 35 м.
Вид битрейта: Постоянный
Битрейт: 448 Кбит/сек
Каналы: 6 каналов
Расположение каналов: Front: L C R, Side: L R, LFE
Частота: 48,0 КГц
Битовая глубина: 16 бит
Метод сжатия: С потерями
Размер потока: 305 Мбайт (22%)
Выравнивание: Разделение по промежуткам
Продолжительность промежутка: 42мс. (1,00 видеокадр)
Время предзагрузки промежутка: 500мс.






реклама партнёра


Вернуться к началу
 Профиль Отправить личное сообщение  
 
   Похожие торренты   Автор   Торрент   Размер 
В этой теме нет новых непрочитанных сообщений. Active Heed - Visions From Realities [2013, Progressive Rock, MP3]

PriZraK

0 | 1

115.05 МБ

В этой теме нет новых непрочитанных сообщений. Рейд 2 / The Raid 2: Berandal [криминал, триллер, боевик, 2014] HDRip, Avo

Dracon

170 | 2

2.39 ГБ

В этой теме нет новых непрочитанных сообщений. Рейд 2 / The Raid 2: Berandal [криминал, триллер, боевик, 2014] BDRip 1080p, Avo

Dracon

295 | 24

12.49 ГБ

В этой теме нет новых непрочитанных сообщений. Рейд 2 / The Raid 2: Berandal [криминал, триллер, боевик, 2014] BDRip 720p, Avo+Sub

Dracon

260 | 5

6.53 ГБ

В этой теме нет новых непрочитанных сообщений. Рейд 2 / The Raid 2: Berandal [криминал, триллер, боевик, 2014] HDRip, Dub [iTunes]

Dracon

495 | 16

2.05 ГБ

В этой теме нет новых непрочитанных сообщений. Рейд 2 / The Raid 2: Berandal [криминал, триллер, боевик, 2014] BDRip 1080p, Dub+Avo+Sub [iTunes]

Dracon

345 | 28

13.39 ГБ

В этой теме нет новых непрочитанных сообщений. Рейд 2 / The Raid 2: Berandal [криминал, триллер, боевик, 2014] HDRip, dub [Чистый звук]

Dracon

623 | 19

2.05 ГБ


Начать новую тему Ответить на тему  [ 1 сообщение ] 




Для Мосгорсуда, Роскомнадзора и рекламодателей:: mosgorsud-torrent[собачка]yandex.ru