Торрент файл
скачать торрент магнет ссылка Добавлен: 02 апр 2013, 20:50
Размер: 1.46 ГБ
Сидеров: 46
Личеров: 4
Статус: (salma3)
Автор

СообщениеДобавлено: 02 апр 2013, 20:50 

Не в сети
Зам. Админа
Аватара пользователя
Дата регистрации:
02 дек 2010, 12:39
Спасибо: 12461 / 214
Сообщения: 27968


Год выхода: 2012
Жанр:мелодрама, комедия
Режиссер: Сюзанна Бир
В ролях: Трине Дюрхольм, Пирс Броснан, Паприка Стеэн, Ким Бодниа, Кристиан Шамбург-Мюллер, Себастьян Йессен, Стина Экблад, Молли Бликст, Эгелинд Бодиль, Ёргенсон Мики, Скил Хансен

О фильме: Филипп — одинокий вдовец и фанат своей работы. Он владеет большой фирмой по выращиванию и продаже овощей. В его жизни нет ничего, кроме бизнеса, и вот однажды сын обьявляет ему, что женится на девушке из Швеции, и просит у Филиппа разрешения устроить свадьбу на его вилле в Соренто. Филипп отправляется в Италию, где он, наконец-то, поймет, что кроме работы в жизни есть еще и любовь: с множеством поворотов и приключений!



Выпущено: Дания, Швеция, Италия, Франция, Германия / Liberator Productions, arte, Teodora Film
Продолжительность: 01:51:13
Озвучивание: Дублированный [лицензия]

Кодек: XviD
Качество: HDRip
Видео: 720x304 (2.37:1), 25 fps, XviD MPEG-4 ~1422 kbps avg, 0.26 bit/pixel
Звук: 48 kHz, AC3 Dolby Digital, 3/2 (L,C,R,l,r) + LFE ch, ~448 kbps

Семпл

General
Complete name: D:КиноLubov.eto.vse.chto.tebe.nuzhno.2012.D.HDRip.1.46Gb.avi
Format: AVI
Format/Info: Audio Video Interleave
File size: 1.46 GiB
Duration: 1h 51mn
Overall bit rate: 1 881 Kbps
Writing application: VirtualDubMod 1.5.10.2 (build 2542/release)
Writing library: VirtualDubMod build 2542/release

Video
ID: 0
Format: MPEG-4 Visual
Format profile: Advanced Simple@L5
Format settings, BVOP: 2
Format settings, QPel: No
Format settings, GMC: No warppoints
Format settings, Matrix: Default (MPEG)
Muxing mode: Packed bitstream
Codec ID: XVID
Codec ID/Hint: XviD
Duration: 1h 51mn
Bit rate: 1 423 Kbps
Width: 720 pixels
Height: 304 pixels
Display aspect ratio: 2.35:1
Frame rate: 25.000 fps
Color space: YUV
Chroma subsampling: 4:2:0
Bit depth: 8 bits
Scan type: Progressive
Compression mode: Lossy
Bits/(Pixel*Frame): 0.260
Stream size: 1.11 GiB (76%)
Writing library: XviD 1.2.1 (UTC 2008-12-04)

Audio
ID: 1
Format: AC-3
Format/Info: Audio Coding 3
Mode extension: CM (complete main)
Format settings, Endianness: Big
Codec ID: 2000
Duration: 1h 51mn
Bit rate mode: Constant
Bit rate: 448 Kbps
Channel(s): 6 channels
Channel positions: Front: L C R, Side: L R, LFE
Sampling rate: 48.0 KHz
Bit depth: 16 bits
Compression mode: Lossy
Delay relative to video: 16ms
Stream size: 356 MiB (24%)
Alignment: Split accross interleaves
Interleave, duration: 40 ms (1.00 video frame)
Interleave, preload duration: 500 ms





реклама партнёра


Вернуться к началу
 Профиль  
 
   Похожие торренты   Автор   Торрент   Размер 
В этой теме нет новых непрочитанных сообщений. Дело в тебе / A Case of You [мелодрама, комедия, 2013] HDRip, Mvo [Лицензия]

Dracon

21 | 3

1.36 ГБ

В этой теме нет новых непрочитанных сообщений. Прости, хочу на тебе жениться / Scusa ma ti voglio sposare [комедия, мелодрама, 2010] HDRip, Dub [Лицензия]

salma3

92 | 13

1.37 ГБ

В этой теме нет новых непрочитанных сообщений. Я подарю тебе любовь [Мелодрама, 2014] SATRip

Dracon

568 | 19

1.17 ГБ

В этой теме нет новых непрочитанных сообщений. Любовь, секс и Лос-Анджелес / Cavemen (Хершел Фабер) [2013, мелодрама, комедия, HDRip | Лицензия] mvo

Nickolas3435

1087 | 33

1.46 ГБ

В этой теме нет новых непрочитанных сообщений. Дело в тебе / A Case of You [мелодрама, комедия, 2013] HDRip, mvo

Dracon

15 | 2

1.38 ГБ

В этой теме нет новых непрочитанных сообщений. Уже скучаю по тебе / Miss You Already [Драма, мелодрама, комедия, 2015] HDRip, dvo

Dracon

2784 | 214

1.45 ГБ

В этой теме нет новых непрочитанных сообщений. Тебе конец / You're Next [Ужасы, 2013] HDRip, Dub [Лицензия]

Dracon

442 | 12

1.37 ГБ


Начать новую тему Ответить на тему  [ 1 сообщение ] 




Для Мосгорсуда, Роскомнадзора и рекламодателей:: mosgorsud-torrent[собачка]yandex.ru