Торрент файл
скачать торрент магнет ссылка Добавлен: 29 мар 2013, 23:21
Размер: 1.46 ГБ
Сидеров: 78
Личеров: 2
Статус: (salma3)
Автор

СообщениеДобавлено: 29 мар 2013, 23:21 

Не в сети
Супермодератор
Аватара пользователя
Дата регистрации:
15 фев 2012, 16:44
Возраст: 28
Спасибо: 6577 / 2143
Сообщения: 43952
«Если тебя выбрали, уже не скрыться»

Мрачные небеса / Dark Skies

Страна: США
Студия: Di Bonaventura Pictures, Endgame Entertainment
Жанр:ужасы, фантастика, триллер
Год выпуска: 2013
Продолжительность: 01:33:02

Перевод: Профессиональный (дублированный)
Оригинальная аудиодорожка: нет
Cубтитры: нет

Режиссер: Скотт Чарльз Стюарт / Scott Charles Stewart

В ролях: Кери Рассел, Джош Хэмилтон, Дакота Гойо, Кадан Рокетт, Дж.К. Симмонс, Л.Дж. Бенет, Рич Хатчмэн, Минди Крист, Энни Турман, Джейк Уошберн...

Описание: После того как серия тревожных событий врывается в мирную жизнь семьи Барреттов, они пытаются узнать, что за страшные неведомые силы стоят за всем этим.




Исходник: DVD5 R5
Качество: DVDRip
Формат: AVI
Видео: 720x304 (2.35:1), 25.000 fps, XviD ~ 1784 kbps avg, 0.326 bit/pixel
Аудио: 48 kHz, AC3 6 ch, 448 kbps, русский


Общее
Полное имя: Mrachnye.nebesa.2013.D.DVDRip[Youtracker]_by_avproh.avi
Формат: AVI
Формат/Информация: Audio Video Interleave
Размер файла: 1,46 Гбайт
Продолжительность: 1 ч. 33 м.
Общий поток: 2242 Кбит/сек
Программа кодирования: VirtualDubMod 1.5.10.3 | http://www.virtualdub-fr.org || (build 2550/release)
Библиотека кодирования: VirtualDubMod build 2550/release

Видео
Идентификатор: 0
Формат: MPEG-4 Visual
Профиль формата: Advanced Simple@L5
Параметр BVOP формата: 1
Параметр QPel формата: Нет
Параметр GMC формата: Без точки перехода
Параметр матрицы формата: Выборочная
Идентификатор кодека: XVID
Идентификатор кодека/Подсказка: XviD
Продолжительность: 1 ч. 33 м.
Битрейт: 1784 Кбит/сек
Ширина: 720 пикселей
Высота: 304 пикселя
Соотношение сторон: 2,35:1
Частота кадров: 25,000 кадров/сек
Цветовое пространство: YUV
Субдискретизация насыщенности: 4:2:0
Битовая глубина: 8 бит
Тип развёртки: Прогрессивная
Метод сжатия: С потерями
Бит/(Пиксели*Кадры): 0.326
Размер потока: 1,16 Гбайт (80%)
Библиотека кодирования: XviD 65

Аудио
Идентификатор: 1
Формат: AC-3
Формат/Информация: Audio Coding 3
Расширение режима: CM (complete main)
Параметр Endianness формата: Big
Идентификатор кодека: 2000
Продолжительность: 1 ч. 33 м.
Вид битрейта: Постоянный
Битрейт: 448 Кбит/сек
Каналы: 6 каналов
Расположение каналов: Front: L C R, Side: L R, LFE
Частота: 48,0 КГц
Битовая глубина: 16 бит
Метод сжатия: С потерями
Размер потока: 298 Мбайт (20%)
Выравнивание: Разделение по промежуткам
Продолжительность промежутка: 40мс. (1,00 видеокадр)
Время предзагрузки промежутка: 500мс.







реклама партнёра


Вернуться к началу
 Профиль Отправить личное сообщение  
 
   Похожие торренты   Автор   Торрент   Размер 
В этой теме нет новых непрочитанных сообщений. Ночные небеса / Night Skies [ужасы, фантастика, триллер, 2007] WEB-DL 720p, Dvo

salma3

1 | 0

2.85 ГБ

В этой теме нет новых непрочитанных сообщений. Ночные небеса / Night Skies [ужасы, фантастика, триллер, 2007] WEB-DLRip, Dvo

salma3

51 | 13

1.46 ГБ

В этой теме нет новых непрочитанных сообщений. Рухнувшие небеса / Falling Skies [S01-05] [фантастика, боевик, триллер, 2011-2015] WEB-DL 720p, Mvo [LostFilm, Sci-Fi]

salma3

2 | 28

77.94 ГБ

В этой теме нет новых непрочитанных сообщений. Рухнувшие Небеса / Сошедшие с небес / Falling Skies / 5 сезон 1-10 серия из 10 [фантастика, боевик, триллер, 2015] WEB-DLRip, Mvo [LostFilm]

salma3

1749 | 1394

5.2 ГБ

В этой теме нет новых непрочитанных сообщений. Серые небеса / Grey Skies [ужасы, 2010] SATRip, Mvo

salma3

197 | 53

1.35 ГБ

В этой теме нет новых непрочитанных сообщений. Рухнувшие Небеса / Falling Skies [05x01-10 из 10] (Грег Биман, Холли Дэйл, Серджо Мимика-Геззан) [фантастика, боевик, триллер, 2015] WEB-DLRip 1080p, Mvo [LostFilm]

Dracon

249 | 414

17.67 ГБ

В этой теме нет новых непрочитанных сообщений. Рухнувшие Небеса / Falling Skies [05x01-10 из 10] (Грег Биман, Холли Дэйл, Серджо Мимика-Геззан) [фантастика, боевик, триллер, 2015] WEB-DLRip 720p, Mvo [LostFilm]

Dracon

172 | 219

12.42 ГБ


Начать новую тему Ответить на тему  [ 1 сообщение ] 




Для Мосгорсуда, Роскомнадзора и рекламодателей:: mosgorsud-torrent[собачка]yandex.ru