Торрент файл
скачать торрент магнет ссылка Добавлен: 29 мар 2013, 21:16
Размер: 1.54 ГБ
Сидеров: 6282
Личеров: 188
Статус: (salma3)
Автор

СообщениеДобавлено: 29 мар 2013, 21:16 

Не в сети
Зам. Админа
Аватара пользователя
Дата регистрации:
02 дек 2010, 12:39
Спасибо: 12461 / 214
Сообщения: 27968
«Одна доза изменит твою жизнь»



Страна: США
Студия: Di Bonaventura Pictures, Endgame Entertainment
Жанр:триллер, драма, криминал
Год выпуска: 2013
Продолжительность: 01:41:33

Перевод: Профессиональный (дублированный)
Оригинальная аудиодорожка: нет
Cубтитры: нет

Режиссер: Стивен Содерберг / Steven Soderbergh

В ролях: Джуд Лоу, Руни Мара, Кэтрин Зета-Джонс, Ченнинг Татум, Кармен Пелаес, Марин Айрлэнд, Полли Дрэйпер, Аральдо Альварес, Джеймс Мартинез, Владимир Версейл...

Описание: Жизнь главной героини Эмили пошла под откос, когда её мужа посадили в тюрьму. Вначале она пыталась спастись от депрессии своими силами, горстями глотая успокоительное. После того, как стало понятно, что это не поможет, Эмили не оставалось другого выхода кроме отправления в психиатрическую лечебницу к добрым и заботливым людям в белых халатах.
Теперь главная героиня борется со своими внутренними демонами уже не одна — справиться с угнетённым состоянием ей помогают два лучших доктора клиники, а также экспериментальные препараты, обладающие довольно странными побочными эффектами. Не получится ли так, что все внутренние страхи Эмили вместо того, чтобы исчезнуть, вырвутся наружу?



Исходник: DVD5 R5
Качество: DVDRip
Формат: AVI

Видео: 720x384 (1.85:1), 25.000 fps, XviD ~ 1717 kbps avg, 0.248 bit/pixel
Аудио: 48 kHz, AC3 6 ch, 448 kbps, русский


Общее
Полное имя: Pobochnyi.effekt.2013.D.DVDRip[Youtracker]_by_avproh.avi
Формат: AVI
Формат/Информация: Audio Video Interleave
Размер файла: 1,54 Гбайт
Продолжительность: 1 ч. 41 м.
Общий поток: 2175 Кбит/сек
Программа кодирования: VirtualDubMod 1.5.10.3 | http://www.virtualdub-fr.org || (build 2550/release)
Библиотека кодирования: VirtualDubMod build 2550/release

Видео
Идентификатор: 0
Формат: MPEG-4 Visual
Профиль формата: Advanced Simple@L5
Параметр BVOP формата: 1
Параметр QPel формата: Нет
Параметр GMC формата: Без точки перехода
Параметр матрицы формата: Выборочная
Идентификатор кодека: XVID
Идентификатор кодека/Подсказка: XviD
Продолжительность: 1 ч. 41 м.
Битрейт: 1717 Кбит/сек
Ширина: 720 пикселей
Высота: 384 пикселя
Соотношение сторон: 1,85:1
Частота кадров: 25,000 кадров/сек
Цветовое пространство: YUV
Субдискретизация насыщенности: 4:2:0
Битовая глубина: 8 бит
Тип развёртки: Прогрессивная
Метод сжатия: С потерями
Бит/(Пиксели*Кадры): 0.248
Размер потока: 1,22 Гбайт (79%)
Библиотека кодирования: XviD 65

Аудио
Идентификатор: 1
Формат: AC-3
Формат/Информация: Audio Coding 3
Расширение режима: CM (complete main)
Параметр Endianness формата: Big
Идентификатор кодека: 2000
Продолжительность: 1 ч. 41 м.
Вид битрейта: Постоянный
Битрейт: 448 Кбит/сек
Каналы: 6 каналов
Расположение каналов: Front: L C R, Side: L R, LFE
Частота: 48,0 КГц
Битовая глубина: 16 бит
Метод сжатия: С потерями
Размер потока: 325 Мбайт (21%)
Выравнивание: Разделение по промежуткам
Продолжительность промежутка: 40мс. (1,00 видеокадр)
Время предзагрузки промежутка: 500мс.







реклама партнёра


Вернуться к началу
 Профиль  
 
   Похожие торренты   Автор   Торрент   Размер 
В этой теме нет новых непрочитанных сообщений. Джими Хендрикс / All Is by My Side [Драма, биография, музыка, 2013] DVDRip, Mvo [лицензия]

Dracon

551 | 10

2.05 ГБ

В этой теме нет новых непрочитанных сообщений. Joan Red - Side Effects Of You [2009, Alternative Rock, MP3]

PriZraK

0 | 1

76.12 МБ

В этой теме нет новых непрочитанных сообщений. Джими Хендрикс / All Is by My Side [Драма, биография, музыка, 2013] DVD9, Mvo+Sub [лицензия]

Dracon

42 | 4

5.75 ГБ

В этой теме нет новых непрочитанных сообщений. Джими Хендрикс / All Is by My Side (Джон Ридли) [Драма, биография, музыка, 2013] HDRip, Mvo [лицензия]

Dracon

4 | 3

1.37 ГБ

В этой теме нет новых непрочитанных сообщений. Вслепую / Blind Side [Триллер, криминал, 1993] DVDRip, Avo

salma3

33 | 7

1.45 ГБ

В этой теме нет новых непрочитанных сообщений. Побочные эффекты семейной жизни / Обратная сторона семейной жизни / Shaadi Ke Side Effects [мелодрама, комедия, 2014] HDRip, Mvo+Suib

salma3

27 | 5

1.39 ГБ

В этой теме нет новых непрочитанных сообщений. Five Finger Death Punch - The Wrong Side Of Heaven And The Righteous Side Of Hell, Volume 2 [2013, Groove Metal, Nu-Metal, MP3]

PriZraK

2 | 2

100.84 МБ


Начать новую тему Ответить на тему  [ 1 сообщение ] 




Для Мосгорсуда, Роскомнадзора и рекламодателей:: mosgorsud-torrent[собачка]yandex.ru