Торрент файл
скачать торрент магнет ссылка Добавлен: 28 мар 2013, 11:26
Размер: 1.47 ГБ
Сидеров: 15
Личеров: 2
Статус: (salma3)
Автор

СообщениеДобавлено: 28 мар 2013, 11:26 

Не в сети
Зам. Админа
Аватара пользователя
Дата регистрации:
02 дек 2010, 12:39
Спасибо: 12461 / 214
Сообщения: 27968


Год выпуска: 2011
Жанр:Комедия, ужасы
Выпущено: Япония
Продолжительность: 01:24:00
Перевод: Любительский одноголосый [den904] - перевод на русский язык [akira9]

Режиссер: Нобору Игучи

В ролях: Асами, Дэннии Кентаро Киси, Асана Мамору, Ариса Накамура, Кэнтаро Симадзу, Маю Сугано, Демо Танака, Юки

О фильме:
Главная героиня — молодая и красивая каратистка Мегуми. Ее сестренка Аи покончила с собой, устав от издевательств в школе. Чтобы развеяться, Мегуми собирается в лес в компании старых друзей. С ней идут: ее бывший парень Так, большегрудая модель Маки и Наои. Дела складываются неплохо ...

Автор: vladislav75

Качество: DVDRip-AVC
Видео: 1900 Кбит/с, 720x400
Аудио: Русский (АС3, 2 ch, 192 Кбит/с), японский (АС3, 2 ch, 384 Кбит/с)

Формат: Matroska
Версия формата: Version 4 / Version 2
Размер файла: 1,47 Гбайт
Продолжительность: 1 ч. 24 м.
Общий поток: 2475 Кбит/сек
Дата кодирования: UTC 2013-03-27 10:25:44
Программа кодирования: mkvmerge v6.1.0 ('Old Devil') built on Mar2 2013 14:32:37
Библиотека кодирования: libebml v1.3.0 + libmatroska v1.4.0

Видео
Идентификатор: 1
Формат: AVC
Формат/Информация: Advanced Video Codec
Профиль формата: Main@L3.0
Параметр CABAC формата: Да
Параметр ReFrames формата: 3 кадра
Идентификатор кодека: V_MPEG4/ISO/AVC
Битрейт: 1900 Кбит/сек
Ширина: 720 пикселей
Высота: 400 пикселей
Соотношение сторон: 16:9
Режим частоты кадров: Переменный
Цветовое пространство: YUV
Субдискретизация насыщенности: 4:2:0
Битовая глубина: 8 бит
Тип развёртки: Прогрессивная
Библиотека кодирования: x264 core 120
Настройки программы: cabac=1 / ref=3 / deblock=1:1:-2 / analyse=0x1:0 / me=umh / subme=7 / psy=1 / psy_rd=1.00:0.00 / mixed_ref=1 / me_range=16 / chroma_me=1 / trellis=2 / 8x8dct=0 / cqm=0 / deadzone=21,11 / fast_pskip=1 / chroma_qp_offset=-2 / threads=6 / sliced_threads=0 / nr=0 / decimate=1 / interlaced=0 / bluray_compat=0 / constrained_intra=0 / bframes=16 / b_pyramid=0 / b_adapt=1 / b_bias=0 / direct=1 / weightb=1 / open_gop=0 / weightp=2 / keyint=240 / keyint_min=24 / scenecut=40 / intra_refresh=0 / rc_lookahead=40 / rc=2pass / mbtree=1 / bitrate=1900 / ratetol=1.0 / qcomp=0.60 / qpmin=3 / qpmax=69 / qpstep=4 / cplxblur=20.0 / qblur=0.5 / ip_ratio=1.40 / aq=1:1.00
Язык: English
Default: Да
Forced: Нет
Основные цвета: BT.601 NTSC
Характеристики трансфера: BT.709
Коэффициенты матрицы: BT.601

Аудио #1
Идентификатор: 2
Формат: MPEG Audio
Версия формата: Version 1
Профиль формата: Layer 3
Режим: Joint stereo
Идентификатор кодека: A_MPEG/L3
Идентификатор кодека/Подсказка: MP3
Продолжительность: 1 ч. 24 м.
Вид битрейта: Постоянный
Битрейт: 192 Кбит/сек
Каналы: 2 канала
Частота: 48,0 КГц
Метод сжатия: С потерями
Размер потока: 116 Мбайт (8%)
Язык: Russian
Default: Да
Forced: Нет

Аудио #2
Идентификатор: 3
Формат: AC-3
Формат/Информация: Audio Coding 3
Расширение режима: CM (complete main)
Параметр Endianness формата: Big
Идентификатор кодека: A_AC3
Продолжительность: 1 ч. 24 м.
Вид битрейта: Постоянный
Битрейт: 384 Кбит/сек
Каналы: 2 канала
Расположение каналов: Front: L R
Частота: 48,0 КГц
Битовая глубина: 16 бит
Метод сжатия: С потерями
Размер потока: 233 Мбайт (16%)
Язык: Japanese
Default: Нет
Forced: Нет

Меню
00:00:00.000: en:Chapter 1
00:03:36.716: en:Chapter 2
00:07:11.931: en:Chapter 3
00:11:27.186: en:Chapter 4
00:12:53.439: en:Chapter 5
00:18:02.514: en:Chapter 6
00:24:49.988: en:Chapter 7
00:33:46.858: en:Chapter 8
00:38:41.986: en:Chapter 9
00:44:28.832: en:Chapter 10
00:50:25.522: en:Chapter 11
00:55:35.932: en:Chapter 12
00:57:52.902: en:Chapter 13
01:01:03.159: en:Chapter 14
01:03:51.494: en:Chapter 15
01:14:44.746: en:Chapter 16
01:19:28.263: en:Chapter 17
01:21:01.022: en:Chapter 18





реклама партнёра


Вернуться к началу
 Профиль  
 
   Похожие торренты   Автор   Торрент   Размер 
В этой теме нет новых непрочитанных сообщений. Стриптиз от зомби / Зомби-стриптизерши / Zombie Strippers! [ужасы, комедия, 2008] BDRemux, Mvo

salma3

14 | 6

21.68 ГБ

В этой теме нет новых непрочитанных сообщений. Гол живых мертвецов / Goal of the Dead [ужасы, комедия, 2014] HDRip, avo

Dracon

260 | 12

1.34 ГБ

В этой теме нет новых непрочитанных сообщений. Мы с братками против зомби апокалипсиса / Me And My Mates vs The Zombie Apocalypse [ужасы, комедия, 2015] DVDRip, Avo

salma3

266 | 18

1.37 ГБ

В этой теме нет новых непрочитанных сообщений. Гол живых мертвецов / Goal of the Dead [ужасы, комедия, 2014] BDRip 720p, avo

Dracon

126 | 5

5.61 ГБ

В этой теме нет новых непрочитанных сообщений. Гол живых мертвецов / Goal of the Dead [ужасы, комедия, 2014] BDRip 1080p, Avo

salma3

60 | 4

8.9 ГБ

В этой теме нет новых непрочитанных сообщений. Пожирая живых / Zombie Night [Ужасы, 2003] DVDRip, Mvo

salma3

0 | 2

1.46 ГБ

В этой теме нет новых непрочитанных сообщений. Возвращение живых мертвецов / The Return of the Living Dead [ужасы, фантастика, комедия, 1985] HDRip, Dvo [НТВ+]

salma3

24 | 4

1.45 ГБ


Начать новую тему Ответить на тему  [ 1 сообщение ] 




Для Мосгорсуда, Роскомнадзора и рекламодателей:: mosgorsud-torrent[собачка]yandex.ru