Торрент файл
скачать торрент магнет ссылка Добавлен: 26 мар 2013, 17:30
Размер: 1.46 ГБ
Сидеров: 158
Личеров: 10
Автор

СообщениеДобавлено: 26 мар 2013, 17:30 

Не в сети
Зам. Админа
Аватара пользователя
Дата регистрации:
02 дек 2010, 12:39
Спасибо: 12650 / 214
Сообщения: 28010
«26 режиссеров, 26 способов умереть»



Страна: США, Новая Зеландия
Студия: Drafthouse Films, Magnet Releasing
Жанр:ужасы
Год выпуска: 2012
Продолжительность: 02:09:17

Перевод: Профессиональный (многоголосый, закадровый)
Оригинальная аудиодорожка: нет
Cубтитры: нет

Режиссер: Кааре Эндрюс / Kaare Andrews, Анджела Беттис / Angela Bettis, Элен Катте / Helene Cattet...

В ролях: Ингрид Болсай Бердал, Кира Загорский, Иван Гонзалез, Даллас Маллой, Ли Хардкэсл, Эрик Од, Люси Клементс, Даренция Матч, Хироко Ясики...

Описание: Каждый из режиссеров выбирает себе букву алфавита и слово, начинающееся на эту букву. Вокруг них и должен строиться сюжет отдельной новеллы. Зрители станут свидетелями самых изощренных убийств по алфавиту от A до Z.



Исходник: Blu-ray 1080p
Качество: BDRip
Формат: AVI

Видео: 720x400 (16:9), 23.976 fps, XviD ~ 1475 kbps avg, 0.213 bit/pixel
Аудио: 48 kHz, МР3 2 ch, 128 kbps, русский


General
Complete name: Azbuka.smerti.2012.P.DVDRip.1.46GB_[Youtracker]_by_avproh.avi
Format: AVI
Format/Info: Audio Video Interleave
File size: 1.46 GiB
Duration: 2h 9mn
Overall bit rate: 1 613 Kbps
Writing application: VirtualDubModRus 1.5.10.2 (build 2542/release)
Writing library: VirtualDubMod build 2542/release

Video
ID: 0
Format: MPEG-4 Visual
Format profile: Advanced Simple@L5
Format settings, BVOP: 1
Format settings, QPel: No
Format settings, GMC: No warppoints
Format settings, Matrix: Custom
Codec ID: XVID
Codec ID/Hint: XviD
Duration: 2h 9mn
Bit rate: 1 475 Kbps
Width: 720 pixels
Height: 400 pixels
Display aspect ratio: 16:9
Frame rate: 24.000 fps
Color space: YUV
Chroma subsampling: 4:2:0
Bit depth: 8 bits
Scan type: Progressive
Compression mode: Lossy
Bits/(Pixel*Frame): 0.213
Stream size: 1.33 GiB (91%)
Writing library: XviD 65

Audio
ID: 1
Format: MPEG Audio
Format version: Version 1
Format profile: Layer 3
Mode: Joint stereo
Mode extension: MS Stereo
Codec ID: 55
Codec ID/Hint: MP3
Duration: 2h 9mn
Bit rate mode: Constant
Bit rate: 128 Kbps
Channel(s): 2 channels
Sampling rate: 48.0 KHz
Compression mode: Lossy
Stream size: 118 MiB (8%)
Alignment: Aligned on interleaves
Interleave, duration: 42 ms (1.00 video frame)
Interleave, preload duration: 504 ms






Вернуться к началу
 Профиль  
 
   Похожие торренты   Автор   Торрент   Размер 
В этой теме нет новых непрочитанных сообщений. Азбука смерти 2.5 / ABCs of Death 2.5 [Ужасы. комедия, 2016] HDRip, Avo

salma3

149 | 59

1.39 ГБ

В этой теме нет новых непрочитанных сообщений. Счастливого дня смерти / Happy Death Day [Триллер, ужасы, детектив, 2017] BDRip, Dub [Лицензия]

salma3

44 | 73

1.46 ГБ

В этой теме нет новых непрочитанных сообщений. Счастливого дня смерти / Happy Death Day [Триллер, ужасы, детектив, 2017] BDRip 1080p, Dub [Лицензия]

salma3

0 | 0

8.13 ГБ

В этой теме нет новых непрочитанных сообщений. Счастливого дня смерти / Happy Death Day [Триллер, ужасы, детектив, 2017] BDRip-HEVC 1080p, Dub [Лицензия]

salma3

19 | 1

4.18 ГБ

В этой теме нет новых непрочитанных сообщений. Жажда смерти 5: Лик смерти / Death Wish V: The Face of Death [Боевик, Криминал, Триллер, 1994] BDRip-AVC, mvo

salma3

17 | 4

2.85 ГБ

В этой теме нет новых непрочитанных сообщений. Счастливого дня смерти / Happy Death Day [Триллер, ужасы, детектив, 2017] HDRip-AVC, Dub [Лицензия]

salma3

0 | 0

743.52 МБ

В этой теме нет новых непрочитанных сообщений. Счастливого дня смерти / Happy Death Day [Ужасы, триллер, детектив, 2017] BDRemux 1080p, Dub [Лицензия]

salma3

0 | 0

26.87 ГБ


СообщениеДобавлено: 29 мар 2013, 20:13 

Не в сети
Зам. Админа
Аватара пользователя
Дата регистрации:
02 дек 2010, 12:39
Спасибо: 12650 / 214
Сообщения: 28010
Какая же гадость...за последние 20 лет ни одного действительно страшного ужастика, может жуткие и были, но страшных нет, не припомню...
только одни есть действительно страшные ужасы были, прошлых лет, точнее 80-х годов это Зловещие мертвецы ...
я смотрел их мельком в годах 88-89-х,чуть не абасрался, ну не в этом суть, а в том что разучились снимать страшные ужастики, хотя называются ужасами...
Ладно моя оценка Азбука смерти 1 с - из 10...


Вернуться к началу
 Профиль  
 
Начать новую тему Ответить на тему  [ Сообщений: 2 ] 




Для Мосгорсуда, Роскомнадзора и рекламодателей:: mosgorsud-torrent[собачка]yandex.ru
cron