Торрент файл
скачать торрент магнет ссылка Добавлен: 13 мар 2013, 21:01
Размер: 1.46 ГБ
Сидеров: 88
Личеров: 6
Статус: (salma3)
Автор

СообщениеДобавлено: 13 мар 2013, 21:01 

Не в сети
Супермодератор
Аватара пользователя
Дата регистрации:
15 фев 2012, 16:44
Возраст: 27
Спасибо: 5143 / 2090
Сообщения: 17495
«Президент. Первая леди. Король. Королева. Мать. Любовница. Один уикенд объединит две великие страны... После коктейля, разумеется.»



Страна: Великобритания
Жанр:драма, комедия, история
Год выпуска: 2012
Продолжительность: 01:30:24
Перевод: Профессиональный (дублированный)
Оригинальная аудиодорожка: нет
Cубтитры: нет

Режиссер: Роджер Мишелл / Roger Michell

В ролях: Билл Мюррей, Лора Линни, Сэмюэл Уэст, Оливия Колман, Элизабет Марвел, Оливия Уильямс, Элизабет Уилсон, Мартин МакДугалл, Эндрю Хавилл, Элинор Брон...

Роли дублировали: Александр Клюквин, Александр Носков, Анастасия Жаркова, Иван Жарков, Кирилл Туранский...

Описание: История о романе президента США Фрэнка Делано Рузвельта с его кузиной Маргарет Стакли в 1939 году, который будет разворачиваться на фоне визита в его нью-йоркскую резиденцию британской королевской четы.




Качество видео: DVDRip [DVD5 R5]
Формат видео: AVI
Видео: 720x304 (2.35:1), XViD1849 Кбит/сек25,000 fps / Бит/(Пиксели*Кадры): 0.338
Аудио: 48 kHz, Dolby AC3 5.1 448 kbps, русский

Раздача от:

General
Complete name: Gaid-Park.na.Gudzone.2012.DVDRip_[Youtracker]_by_avproh.avi
Format: AVI
Format/Info: Audio Video Interleave
File size: 1.46 GiB
Duration: 1h 30mn
Overall bit rate: 2 307 Kbps
Writing application: VirtualDubModRus 1.5.10.2 (build 2542/release)
Writing library: VirtualDubMod build 2542/release

Video
ID: 0
Format: MPEG-4 Visual
Format profile: Advanced Simple@L5
Format settings, BVOP: 1
Format settings, QPel: No
Format settings, GMC: No warppoints
Format settings, Matrix: Custom
Codec ID: XVID
Codec ID/Hint: XviD
Duration: 1h 30mn
Bit rate: 1 849 Kbps
Width: 720 pixels
Height: 304 pixels
Display aspect ratio: 2.35:1
Frame rate: 25.000 fps
Color space: YUV
Chroma subsampling: 4:2:0
Bit depth: 8 bits
Scan type: Progressive
Compression mode: Lossy
Bits/(Pixel*Frame): 0.338
Stream size: 1.17 GiB (80%)
Writing library: XviD 65

Audio
ID: 1
Format: AC-3
Format/Info: Audio Coding 3
Mode extension: CM (complete main)
Format settings, Endianness: Big
Codec ID: 2000
Duration: 1h 30mn
Bit rate mode: Constant
Bit rate: 448 Kbps
Channel(s): 6 channels
Channel positions: Front: L C R, Side: L R, LFE
Sampling rate: 48.0 KHz
Bit depth: 16 bits
Compression mode: Lossy
Stream size: 290 MiB (19%)
Alignment: Split accross interleaves
Interleave, duration: 40 ms (1.00 video frame)
Interleave, preload duration: 500 ms







реклама партнёра


Вернуться к началу
 Профиль Отправить личное сообщение  
 
   Похожие торренты   Автор   Торрент   Размер 
В этой теме нет новых непрочитанных сообщений. Южный парк / South Park [20x01-04 из 10] (Мультсериал, комедия, 2016) HDTVRip | IdeaFilm

marya111

0 | 0

1.16 ГБ

В этой теме нет новых непрочитанных сообщений. Южный парк / South Park [20x01-07 из 10] ( Мультсериал, комедия, 2016) HDTVRip | IdeaFilm

marya111

47 | 42

2.01 ГБ

В этой теме нет новых непрочитанных сообщений. Южный парк / South Park [20x01-05 из 10] (Мультсериал, комедия, 2016) HDTVRip | IdeaFilm

marya111

0 | 0

1.45 ГБ

В этой теме нет новых непрочитанных сообщений. Южный парк / South Park [20x01-06 из 10] (Мультсериал, комедия, 2016) HDTV 720p | IdeaFilm

marya111

0 | 0

4 ГБ

В этой теме нет новых непрочитанных сообщений. Южный парк / South Park [20x01-03 из 10] (Мультсериал, комедия, 2016) HDTV 720p | IdeaFilm

marya111

26 | 21

1.97 ГБ

В этой теме нет новых непрочитанных сообщений. Госфорд парк / Gosford Park [драма, детектив, 2001] BDRip 720p, Mvo

salma3

2 | 2

7.03 ГБ

В этой теме нет новых непрочитанных сообщений. Госфорд парк / Gosford Park [драма, детектив, 2001] BDRemux 1080p, Mvo

salma3

19 | 7

18.38 ГБ


Начать новую тему Ответить на тему  [ 1 сообщение ] 




Для Мосгорсуда, Роскомнадзора и рекламодателей:: mosgorsud-torrent[собачка]yandex.ru