Торрент файл
скачать торрент магнет ссылка Добавлен: 10 мар 2013, 14:27
Размер: 1.23 ГБ
Сидеров: 29
Личеров: 4
Статус: (salma3)
Автор

СообщениеДобавлено: 10 мар 2013, 14:27 

Не в сети
Супермодератор
Аватара пользователя
Дата регистрации:
15 фев 2012, 16:44
Возраст: 27
Спасибо: 5121 / 2089
Сообщения: 17282

Страна: США
Жанр:Драма
Год выпуска: 2010
Продолжительность: 01:22:13

Перевод: Одноголосый [любительский закадровый]
Cубтитры: английские вшитые
Оригинальная аудиодорожка: нет

Режиссер: Д. Дэвид Морин / D. David Morin

В ролях: Джерри Филлипс / Jerry Phillips (Johnny), Музетта Вандер / Musetta Vander (Julia Carter), Мэл Фэйр / Mel Fair (Drew Carter), Ли Мэйджорс / Lee Majors (Dr. Miller), Aubyn Cole (Kayla Carter)

Описание:
Что особенно плохо, так это то, что у мальчика нет семьи, которая могла бы поддержать в это трудное время. Новый врач юного героя картины «Джонни», доктор Картер, проникается большой симпатией к своему пациенту и хочет взять его к себе в семью. Однако, в его собственной семье далеко не все в порядке. Его 10-летний сын погиб в автокатастрофе, и жена, тяжело переживая эту потерю, отстранилась от воспитания дочери. Кроме того, она резко возражает против того, чтобы усыновить этого неизлечимо больного ребенка…
Фильм «Джонни» (Johnny) - семейная драма, христианское кино, созданное с верой в Христа и в тепло людских сердец.



СЕМПЛ

Качество видео: DVDRip
Формат видео: AVI
Видео: 720x400 (1.80:1), 25 fps, XviD build 63 ~2003 kbps avg, 0.28 bit/pixel
Аудио: 44.100 kHz, MPEG Layer 3, 2 ch, ~124.11 kbps avg

General
Complete name : D:Фильмы с христ торрентаJohnny 2010 DVDRip(RUS)_xvid.avi
Format : AVI
Format/Info : Audio Video Interleave
Format profile : OpenDML
File size : 1.23 GiB
Duration : 1h 22mn
Overall bit rate : 2 135 Kbps
Writing application : MEncoder r33883
Writing library : MPlayer

Video
ID : 0
Format : MPEG-4 Visual
Codec ID : XVID
Codec ID/Hint : XviD
Duration : 1h 22mn
Bit rate : 1 996 Kbps
Width : 720 pixels
Height : 400 pixels
Display aspect ratio : 16:9
Frame rate : 25.000 fps
Color space : YUV
Chroma subsampling : 4:2:0
Compression mode : Lossy
Bits/(Pixel*Frame) : 0.277
Stream size : 1.15 GiB (93%)

Audio
ID : 1
Format : MPEG Audio
Codec ID : 55
Codec ID/Hint : MP3
Duration : 1h 22mn
Bit rate : 124 Kbps
Channel(s) : 2 channels
Sampling rate : 44.1 KHz
Compression mode : Lossy
Stream size : 2.99 MiB (0%)
Alignment : Aligned on interleaves
Interleave, duration : 640 ms (16.00 video frames)
Interleave, preload duration : 484 ms






реклама партнёра


Вернуться к началу
 Профиль Отправить личное сообщение  
 
   Похожие торренты   Автор   Торрент   Размер 
В этой теме нет новых непрочитанных сообщений. Беги, Джонни / Bhaag Johnny [Боевик, триллер, 2015] DVDRip, Mvo [SDI Media]

salma3

39 | 8

1.37 ГБ

В этой теме нет новых непрочитанных сообщений. Джонни, будь хорошим / Johnny Be Good [Комедия, 1988] HDTVRip, Dvo

salma3

18 | 4

1.45 ГБ

В этой теме нет новых непрочитанных сообщений. Джонни-Зубочистка / Johnny Stecchino [комедия, 1991] BDRip 720p, Mvo

salma3

52 | 4

6.94 ГБ

В этой теме нет новых непрочитанных сообщений. Москва никогда не спит (Джонни О Райлли) [драма, комедия, триллер, 2015] WEB-DLRip [iTunes]

Dracon

45 | 2

1.46 ГБ

В этой теме нет новых непрочитанных сообщений. Москва никогда не спит (Джонни О Райлли) [драма, комедия, триллер, 2015] WEB-DL 720p [iTunes]

Dracon

92 | 5

3.1 ГБ

В этой теме нет новых непрочитанных сообщений. Москва никогда не спит (Джонни О Райлли) [драма, комедия, триллер, 2015] WEB-DL 1080p [iTunes]

Dracon

21 | 1

3.34 ГБ

В этой теме нет новых непрочитанных сообщений. Месть / Возмездие / Fuk sau / Vengeance (Джонни То / Johnnie To) [2009г., боевик, триллер, драма, криминал, BDRip-AVC] AVO

Alfredovich

15 | 3

2.35 ГБ


Начать новую тему Ответить на тему  [ 1 сообщение ] 




Для Мосгорсуда, Роскомнадзора и рекламодателей:: mosgorsud-torrent[собачка]yandex.ru