Торрент файл
скачать торрент магнет ссылка Добавлен: 07 мар 2013, 13:08
Размер: 1.48 ГБ
Сидеров: 0
Личеров: 2
Автор

СообщениеДобавлено: 07 мар 2013, 13:08 

Не в сети
Зам. Админа
Аватара пользователя
Дата регистрации:
02 дек 2010, 12:39
Спасибо: 12461 / 214
Сообщения: 27968

Год выпуска: 2012
Жанр:Фэнтези, приключения
Выпущено: США, Новая Зеландия, 3Foot7, Metro-Goldwyn-Mayer (MGM), New Line Cinema, WingNut Films
Продолжительность: 02:49:37
Перевод: Дублированное [Чистый звук]

Режиссер: Питер Джексон

В ролях: Мартин Фриман, Иэн МакКеллен, Ричард Армитидж, Джеймс Несбитт, Кен Стотт, Грэм МакТавиш, Уильям Кирчер, Стивен Хантер, Дин О’Горман, Эйдан Тернер, Джон Коллен, Питер Хэмблтон, Джед Брофи, Энди Серкис, Кейт Бланшетт, Элайджа Вуд, Хьюго Уивинг, Кристофер Ли, Иэн Холм, Марк Хэдлоу

О фильме:Фильм повествует о путешествии Бильбо Бэггинса, который пускается в грандиозный поход, целью которого является отвоевание утраченного королевства гномов Эребор у зловещего дракона Смога. Совершенно неожиданно с хоббитом налаживает контакт волшебник Гэндальф Серый. Так Бильбо находит себя, присоединяясь к компании тринадцати гномов, возглавляемых легендарным воином, Торином Дубощитом. Их путешествие проляжет через Дикий Край, через предательские земли, населенные гоблинами и орками, смертоносными варгами и гигантскими пауками, народом, меняющим шкуры, и волшебниками.

Формат: MKV
Качество: HDRip-AVC
Видео: MPEG4 Video (H264) 640x264 (211:88) 23.976fps
Аудио: Dolby AC3 48000Hz 6ch 4608kbps [Russian, DD 5.1 @ 448 kbps - Dub]
Субтитры: UTF-8 [Russian (Subtitle 1) [Default]]


Семпл

General
Unique ID : 5293596997907951328172490492210391364 (0x3FB827B83AA5E1705381DA8C2D52944)
Format : Matroska
Format version : Version 2
File size : 1.48 GiB
Duration : 2h 49mn
Overall bit rate : 1 248 Kbps

Video
ID : 1
Format : AVC
Format/Info : Advanced Video Codec
Format profile : High@L4.1
Format settings, CABAC : Yes
Format settings, ReFrames : 3 frames
Codec ID : V_MPEG4/ISO/AVC
Duration : 2h 49mn
Bit rate : 865 Kbps
Width : 640 pixels
Height : 264 pixels
Display aspect ratio : 2.40:1
Original display aspect ratio : 2.40:1
Frame rate mode : Variable
Frame rate : 23.976 fps
Color space : YUV
Chroma subsampling : 4:2:0
Bit depth : 8 bits
Scan type : Progressive
Bits/(Pixel*Frame) : 0.214
Stream size : 1 018 MiB (67%)
Title : The Hobbit: An Unexpected Journey 2012 BluRay 1080p DTS x264-CHD
Writing library : x264 core 116 r2019M 9cc407d
Encoding settings : cabac=1 / ref=3 / deblock=1:-1:-1 / analyse=0x3:0x133 / me=hex / subme=7 / psy=1 / psy_rd=1.00:0.15 / mixed_ref=1 / me_range=16 / chroma_me=1 / trellis=1 / 8x8dct=1 / cqm=0 / deadzone=21,11 / fast_pskip=1 / chroma_qp_offset=-3 / threads=8 / sliced_threads=0 / nr=0 / decimate=1 / interlaced=0 / bluray_compat=0 / constrained_intra=0 / bframes=3 / b_pyramid=1 / b_adapt=2 / b_bias=0 / direct=3 / weightb=1 / open_gop=0 / weightp=2 / keyint=230 / keyint_min=23 / scenecut=40 / intra_refresh=0 / rc_lookahead=40 / rc=abr / mbtree=1 / bitrate=865 / ratetol=1.0 / qcomp=0.60 / qpmin=10 / qpmax=51 / qpstep=4 / ip_ratio=1.40 / aq=1:1.00
Language : English
Default : Yes
Forced : No

Audio
ID : 2
Format : AC-3
Format/Info : Audio Coding 3
Mode extension : CM (complete main)
Codec ID : A_AC3
Duration : 2h 49mn
Bit rate mode : Constant
Bit rate : 384 Kbps
Channel(s) : 6 channels
Channel positions : Front: L C R, Side: L R, LFE
Sampling rate : 48.0 KHz
Bit depth : 16 bits
Compression mode : Lossy
Stream size : 466 MiB (31%)
Title : DD 5.1 @ 448 kbps - Dub
Language : Russian
Default : Yes
Forced : No

Text
ID : 3
Format : UTF-8
Codec ID : S_TEXT/UTF8
Codec ID/Info : UTF-8 Plain Text
Language : Russian
Default : Yes
Forced : No





реклама партнёра


Вернуться к началу
 Профиль  
 
   Похожие торренты   Автор   Торрент   Размер 
В этой теме нет новых непрочитанных сообщений. Хоббит: Нежданное путешествие (Расширенная Версия) / The Hobbit: An Unexpected Journey (Extended Cut) (Питер Джексон) [2012, Фэнтези, приключения, экранизация, BDRip-AVC 1080p] [DD5.1] [MVO] [ Дублированный + Subs Rus]

Nikolai.Baranov

13 | 2

8.61 ГБ

В этой теме нет новых непрочитанных сообщений. Хоббит: Пустошь Смауга / The Hobbit: The Desolation of Smaug [фэнтези, приключения, 2013] HDRip, dub [Чистый звук]

Dracon

1394 | 17

2.05 ГБ

В этой теме нет новых непрочитанных сообщений. Хоббит: Пустошь Смауга / The Hobbit: The Desolation of Smaug [Фэнтези, Триллер, Приключения, 2014] BDRip 1080p, dub+sub [Чистый звук | 3D-Video]

Dracon

23 | 6

15.98 ГБ

В этой теме нет новых непрочитанных сообщений. Хоббит: Битва пяти воинств / The Hobbit: The Battle of the Five Armies (Питер Джексон) [Фэнтези, Приключения, 2014] DVDScr, dub [Чистый звук]

Dracon

226 | 12

2.05 ГБ

В этой теме нет новых непрочитанных сообщений. Хоббит: Битва пяти воинств / The Hobbit: The Battle of the Five Armies (Питер Джексон) [Фэнтези, Приключения, 2014] HQScr 720p, dub+sub [Чистый звук]

Dracon

591 | 30

3 ГБ

В этой теме нет новых непрочитанных сообщений. Хоббит: Пустошь Смауга / The Hobbit: The Desolation of Smaug [фэнтези, приключения, 2013] HDRip, dub [Звук с TS]

Dracon

41 | 11

1.38 ГБ

В этой теме нет новых непрочитанных сообщений. Хобот: Внезапная ходка взад-назад / The Hobbit: An Unexpected Journey [1-2 часть] (Питер Джексон) [2012, фэнтези, приключения, комедия, смешной перевод, BDRip 1080p | Гоблин] avo

Dracon

1010 | 31

2.89 ГБ


Начать новую тему Ответить на тему  [ 1 сообщение ] 




Для Мосгорсуда, Роскомнадзора и рекламодателей:: mosgorsud-torrent[собачка]yandex.ru