Торрент файл
скачать торрент магнет ссылка Добавлен: 06 мар 2013, 14:11
Размер: 1.44 ГБ
Сидеров: 0
Личеров: 2
Автор

СообщениеДобавлено: 06 мар 2013, 14:11 

Не в сети
Зам. Админа
Аватара пользователя
Дата регистрации:
02 дек 2010, 12:39
Спасибо: 12461 / 214
Сообщения: 27968

Страна: Испания
Жанр:боевик, триллер, драма
Год выпуска: 2012
Продолжительность: 01:48:57
Перевод: Профессиональное (многоголосое) [Омикрон]

Режиссер
: Хуан Антонио Байона / Juan Antonio Bayona

В ролях: Наоми Уоттс (Maria), Юэн МакГрегор (Henry), Том Холлэнд (Lucas), Сэмюэл Джослин (Thomas), Оакли Пендергаст (Simon), Марта Этура (Simone), Шенке Мёринг (Karl), Джеральдин Чаплин (Old Woman), Плой Хиндачоте (Caregiver), Жомжаои Сэ-Лим (Red Cross Nurse), Йохан Сандберг (Daniel), Жан Роланд Сандберг (Daniel's Father)

О фильме: Фильм рассказывает о европейской семье, проводящей отпуск в экзотической стране Юго-Восточной Азии – Таиланде с тремя детьми. Однако вскоре спокойствие и мир сменит хаос и ужас. В один солнечный декабрьский день, когда семья Генри и Марии проводили время в отеле, наблюдая, как дети наслаждаются теплой водой бассейна, они вдруг услышали странный шум, исходящий из глубины океана. Это и было началом трагедии. Не успев схватить детей, семья оказывается под огромным объемом воды и только чудо помогает им спастись...

Формат: MKV
Качество: HDRip-AVC
Видео: MPEG4 Video (H264) 720x304 (717:304) 24fps
Аудио: Dolby AC3 48000Hz 6ch 4608kbps [Russian, DTS 5.1 @ 1536 kbps - MVO]

Cемпл
General
Unique ID : 101034448696295534075835152688426664096 (0x4C0286EA835730316C6C0E51B1EE40A0)
Format : Matroska
Format version : Version 2
File size : 1.44 GiB
Duration : 1h 53mn
Overall bit rate : 1 813 Kbps

Video
ID : 1
Format : AVC
Format/Info : Advanced Video Codec
Format profile : High@L4.1
Format settings, CABAC : Yes
Format settings, ReFrames : 3 frames
Codec ID : V_MPEG4/ISO/AVC
Duration : 1h 53mn
Bit rate : 1 329 Kbps
Nominal bit rate : 1 419 Kbps
Width : 720 pixels
Height : 304 pixels
Display aspect ratio : 2.35:1
Frame rate mode : Variable
Frame rate : 24.000 fps
Color space : YUV
Chroma subsampling : 4:2:0
Bit depth : 8 bits
Scan type : Progressive
Bits/(Pixel*Frame) : 0.253
Stream size : 1.05 GiB (73%)
Title : Release for HDCLUB
Writing library : x264 core 116 r2019M 9cc407d
Encoding settings : cabac=1 / ref=3 / deblock=1:-1:-1 / analyse=0x3:0x133 / me=hex / subme=7 / psy=1 / psy_rd=1.00:0.15 / mixed_ref=1 / me_range=16 / chroma_me=1 / trellis=1 / 8x8dct=1 / cqm=0 / deadzone=21,11 / fast_pskip=1 / chroma_qp_offset=-3 / threads=8 / sliced_threads=0 / nr=0 / decimate=1 / interlaced=0 / bluray_compat=0 / constrained_intra=0 / bframes=3 / b_pyramid=1 / b_adapt=2 / b_bias=0 / direct=3 / weightb=1 / open_gop=0 / weightp=2 / keyint=240 / keyint_min=24 / scenecut=40 / intra_refresh=0 / rc_lookahead=40 / rc=abr / mbtree=1 / bitrate=1419 / ratetol=1.0 / qcomp=0.60 / qpmin=10 / qpmax=51 / qpstep=4 / ip_ratio=1.40 / aq=1:1.00
Language : English
Default : Yes
Forced : No

Audio
ID : 2
Format : AC-3
Format/Info : Audio Coding 3
Mode extension : CM (complete main)
Codec ID : A_AC3
Duration : 1h 53mn
Bit rate mode : Constant
Bit rate : 448 Kbps
Channel(s) : 6 channels
Channel positions : Front: L C R, Side: L R, LFE
Sampling rate : 48.0 KHz
Bit depth : 16 bits
Compression mode : Lossy
Stream size : 364 MiB (25%)
Title : DTS 5.1 @ 1536 kbps - MVO, studio Omicron
Language : Russian
Default : Yes
Forced : No




реклама партнёра


Вернуться к началу
 Профиль  
 
   Похожие торренты   Автор   Торрент   Размер 
В этой теме нет новых непрочитанных сообщений. Слепой / Thaandavam [Боевик, триллер, драма, 2012] HDRip, Avo

salma3

40 | 7

2.05 ГБ

В этой теме нет новых непрочитанных сообщений. Нарковойна / Du zhan / Drug War [боевик, триллер, драма, криминал, 2012] HDRip, Mvo [НТВ]

salma3

13 | 2

1.46 ГБ

В этой теме нет новых непрочитанных сообщений. Заложница 3 / Taken 3 (Оливье Мегатон) [боевик, триллер, драма, криминал, 2012] HDRip, dub [чистый звук / EXTENDED]

Dracon

7 | 4

1.37 ГБ

В этой теме нет новых непрочитанных сообщений. Пленница / Побег / Flukt [боевик, триллер, история, 2012] HDRip, Mvo

salma3

68 | 10

1.37 ГБ

В этой теме нет новых непрочитанных сообщений. Недооформлен Самолет президента / Air Force One (Вольфганг Петерсен) [1997, боевик, триллер, драма, приключения, HDRip-AVC] DUB+MVO+AVO / Фильмы HDRip Данный торрент является блокированным, причина: недооформленный торрент

Kochesov

11 | 1

3.57 ГБ

В этой теме нет новых непрочитанных сообщений. Рокировка. Начало / Билла 2 / Billa 2 [Боевик, триллер, 2012] HDRip, Mvo [Red Media]

salma3

2 | 3

1.45 ГБ

В этой теме нет новых непрочитанных сообщений. Эволюция Борна / The Bourne Legacy [Боевик, Триллер, Детектив, 2012] HDRip, Avo [Живов]

salma3

150 | 8

1.46 ГБ


Начать новую тему Ответить на тему  [ 1 сообщение ] 




Для Мосгорсуда, Роскомнадзора и рекламодателей:: mosgorsud-torrent[собачка]yandex.ru