Торрент файл
скачать торрент магнет ссылка Добавлен: 06 мар 2013, 12:28
Размер: 1.47 ГБ
Сидеров: 0
Личеров: 2
Автор

СообщениеДобавлено: 06 мар 2013, 12:28 

Не в сети
Зам. Админа
Аватара пользователя
Дата регистрации:
02 дек 2010, 12:39
Спасибо: 12461 / 214
Сообщения: 27968

Год выпуска: 2012
Жанр:Драма, комедия
Выпущено: США, Super Crispy Entertainment
Режиссер: Джеймс Понсольдт
В ролях: Мэри Элизабет Уинстэд, Аарон Пол, Октавия Спенсер, Ник Офферман, Меган Маллалли, Мэри Кэй Плэйс, Кайл Галлнер, Бри Тёрнер, Маккензи Дэвис, Патти Эллисон

О фильме: Супруги-алкоголики катятся по наклонной, пока однажды жена не решает обратиться за помощью в медицинский центр.



Формат: MKV
Качество: HDRip-AVC
Видео:MPEG4 Video (H264) 720x392 (723:392) 23.976fps
Аудио: Dolby AC3 48000Hz 6ch 4608kbps [Russian, DD 5.1 @ 384 kbps - MVO, R5]

Семпл

General
Unique ID : 114876786160092670683651232546796468383 (0x566C76D84E5CA094165A81C0A485F89F)
Format : Matroska
Format version : Version 2
File size : 1.47 GiB
Duration : 1h 21mn
Overall bit rate : 2 589 Kbps

Video
ID : 1
Format : AVC
Format/Info : Advanced Video Codec
Format profile : High@L4.1
Format settings, CABAC : Yes
Format settings, ReFrames : 3 frames
Codec ID : V_MPEG4/ISO/AVC
Duration : 1h 21mn
Bit rate : 2 166 Kbps
Width : 720 pixels
Height : 392 pixels
Display aspect ratio : 16:9
Original display aspect ratio : 16:9
Frame rate mode : Variable
Frame rate : 23.976 fps
Color space : YUV
Chroma subsampling : 4:2:0
Bit depth : 8 bits
Scan type : Progressive
Bits/(Pixel*Frame) : 0.320
Stream size : 1.18 GiB (81%)
Title : Smashed.2012.1080p.BluRay.DTS.x264-DSS
Writing library : x264 core 116 r2019M 9cc407d
Encoding settings : cabac=1 / ref=3 / deblock=1:-1:-1 / analyse=0x3:0x133 / me=hex / subme=7 / psy=1 / psy_rd=1.00:0.15 / mixed_ref=1 / me_range=16 / chroma_me=1 / trellis=1 / 8x8dct=1 / cqm=0 / deadzone=21,11 / fast_pskip=1 / chroma_qp_offset=-3 / threads=8 / sliced_threads=0 / nr=0 / decimate=1 / interlaced=0 / bluray_compat=0 / constrained_intra=0 / bframes=3 / b_pyramid=1 / b_adapt=2 / b_bias=0 / direct=3 / weightb=1 / open_gop=0 / weightp=2 / keyint=230 / keyint_min=23 / scenecut=40 / intra_refresh=0 / rc_lookahead=40 / rc=abr / mbtree=1 / bitrate=2166 / ratetol=1.0 / qcomp=0.60 / qpmin=10 / qpmax=51 / qpstep=4 / ip_ratio=1.40 / aq=1:1.00
Language : English
Default : Yes
Forced : No

Audio
ID : 2
Format : AC-3
Format/Info : Audio Coding 3
Mode extension : CM (complete main)
Codec ID : A_AC3
Duration : 1h 21mn
Bit rate mode : Constant
Bit rate : 448 Kbps
Channel(s) : 6 channels
Channel positions : Front: L C R, Side: L R, LFE
Sampling rate : 48.0 KHz
Bit depth : 16 bits
Compression mode : Lossy
Stream size : 260 MiB (17%)
Title : DD 5.1 @ 384 kbps - MVO, R5
Language : Russian
Default : Yes
Forced : No





реклама партнёра


Вернуться к началу
 Профиль  
 
   Похожие торренты   Автор   Торрент   Размер 
В этой теме нет новых непрочитанных сообщений. Укуренные в хлам / Still Smokin [комедия, музыка, 1983] WEB-DLRip, Avo

salma3

43 | 9

1.46 ГБ

В этой теме нет новых непрочитанных сообщений. Укуренные в хлам / Still Smokin [комедия, музыка, 1983] WEB-DL 1080p, Avo

salma3

64 | 3

3.47 ГБ

В этой теме нет новых непрочитанных сообщений. Семейка вампиров / Die Vampirschwestern [фэнтези, драма, комедия, приключения, семейный, 2012] HDRip, Dub [Лицензия]

Dracon

211 | 8

1.46 ГБ

В этой теме нет новых непрочитанных сообщений. Полетта / Paulette [комедия, 2012] HDRip, Dub [Лицензия]

Dracon

403 | 17

1.46 ГБ

В этой теме нет новых непрочитанных сообщений. Не входить, мы не одеты / Do Not Disturb [Комедия, 2012] HDRip, Mvo [Лицензия]

salma3

744 | 23

1.46 ГБ

В этой теме нет новых непрочитанных сообщений. Клод в помощь / La strategie de la poussette [комедия, 2012] HDRip, Mvo [лицензия]

salma3

57 | 4

1.5 ГБ

В этой теме нет новых непрочитанных сообщений. Команда Мечты / Les seigneurs [Комедия, спорт, 2012] HDRip-AVC, Dub [Лицензия]

Dracon

64 | 3

1.45 ГБ


Начать новую тему Ответить на тему  [ 1 сообщение ] 




Для Мосгорсуда, Роскомнадзора и рекламодателей:: mosgorsud-torrent[собачка]yandex.ru