Торрент файл
скачать торрент магнет ссылка Добавлен: 06 мар 2013, 09:13
Размер: 1.46 ГБ
Сидеров: 26
Личеров: 2
Автор

СообщениеДобавлено: 06 мар 2013, 09:13 

Не в сети
Зам. Админа
Аватара пользователя
Дата регистрации:
02 дек 2010, 12:39
Спасибо: 12460 / 214
Сообщения: 27968
Год выхода: 2012
Жанр: Ужасы
Режиссер: Джон Поликвин
В ролях: Риз Александр, Стефани Беннетт, Джеффри Бауэр-Чепман, Ричард Хэрмон, Хоуи Лаи, Лиэнн Лэпп, Мишель Нил, Шоун С. Филлипс, Дилан Плэйфейр, Шон Роджерсон

О фильме:
В руки к режиссёру-юнцу Алексу попадает фильм ужасов «Искатели могил». Кино не производит на него впечатления, но отношение Алекса меняется, когда ему анонимно присылают странный видеоролик, смахивающий на вырезанную сценку из «Искателей». Заинтересовавшись посланием, Алекс пытается найти создателей хитового ужастика. Тщетность этих попыток наталкивает парня на мысль, что снятое в «Искателях» произошло на самом деле, и авторы фильма мертвы. Продолжая расследование и получая новые доказательства своей теории, Алекс решается на последний шаг: он предлагает своим друзьям забраться в ту самую заброшенную психушку, где снимались «Искатели могил».


Страна: Канада, США / Death Awaits Cinema, Twin Engine Films, Pink Buffalo Films
Продолжительность: 01:38:45
Перевод: Профессиональное (многоголосое) [лицензия]

Формат: MKV
Качество: HDRip-AVC
Видео:MPEG4 Video (H264) 720x408 (725:408) 23.976fps
Audio: Dolby AC3 48000Hz 6ch 4608kbps [Russian, DD 5.1 @ 448 kbps - MVO, R5]

Cемпл
General
Unique ID: 5142858128576439443205104250530257679 (0x3DE7A7B7FED2D3EDCBB0782D9335B0F)
Format: Matroska
Format version: Version 2
File size: 1.46 GiB
Duration: 1h 38mn
Overall bit rate: 2 119 Kbps

Video
ID: 2
Format: AVC
Format/Info: Advanced Video Codec
Format profile: High@L4.1
Format settings, CABAC: Yes
Format settings, ReFrames: 3 frames
Codec ID: V_MPEG4/ISO/AVC
Duration: 1h 38mn
Bit rate: 1 700 Kbps
Width: 720 pixels
Height: 408 pixels
Display aspect ratio: 16:9
Original display aspect ratio: 16:9
Frame rate mode: Variable
Frame rate: 23.976 fps
Color space: YUV
Chroma subsampling: 4:2:0
Bit depth: 8 bits
Scan type: Progressive
Bits/(Pixel*Frame): 0.241
Stream size: 1.12 GiB (77%)
Title: Grave.Encounters.2.2012.720p.BluRay.x264.RoSubbed-GECKOS
Writing library: x264 core 116 r2019M 9cc407d
Encoding settings: cabac=1 / ref=3 / deblock=1:-1:-1 / analyse=0x3:0x133 / me=hex / subme=7 / psy=1 / psy_rd=1.00:0.15 / mixed_ref=1 / me_range=16 / chroma_me=1 / trellis=1 / 8x8dct=1 / cqm=0 / deadzone=21,11 / fast_pskip=1 / chroma_qp_offset=-3 / threads=8 / sliced_threads=0 / nr=0 / decimate=1 / interlaced=0 / bluray_compat=0 / constrained_intra=0 / bframes=3 / b_pyramid=1 / b_adapt=2 / b_bias=0 / direct=3 / weightb=1 / open_gop=0 / weightp=2 / keyint=230 / keyint_min=23 / scenecut=40 / intra_refresh=0 / rc_lookahead=40 / rc=abr / mbtree=1 / bitrate=1700 / ratetol=1.0 / qcomp=0.60 / qpmin=10 / qpmax=51 / qpstep=4 / ip_ratio=1.40 / aq=1:1.00
Language: English
Default: Yes
Forced: No

Audio
ID: 1
Format: AC-3
Format/Info: Audio Coding 3
Mode extension: CM (complete main)
Codec ID: A_AC3
Duration: 1h 38mn
Bit rate mode: Constant
Bit rate: 448 Kbps
Channel(s): 6 channels
Channel positions: Front: L C R, Side: L R, LFE
Sampling rate: 48.0 KHz
Bit depth: 16 bits
Compression mode: Lossy
Stream size: 316 MiB (21%)
Title: DD 5.1 @ 448 kbps - MVO, R5
Language: Russian
Default: Yes
Forced: No





реклама партнёра


Вернуться к началу
 Профиль  
 
   Похожие торренты   Автор   Торрент   Размер 
В этой теме нет новых непрочитанных сообщений. Могила девушки / Неоплаканная могила / The Girl's Grave / Mourning Grave [Ужасы, комедия, романтика, 2014] HDRip, dvo

Dracon

664 | 19

1.35 ГБ

В этой теме нет новых непрочитанных сообщений. Я плюю на ваши могилы 2 / I Spit On Your Grave 2 Я плюю на ваши могилы 2 / I Spit On Your Grave 2 [ужасы, триллер, криминал, 2013] BDRemux 1080p, Mvo+Sub [UNRATED | Лицензия]

Dracon

42 | 17

19.5 ГБ

В этой теме нет новых непрочитанных сообщений. Могила девушки / Неоплаканная могила / The Girl's Grave / Mourning Grave [Ужасы, комедия, романтика, 2014] BDRip 720p, dvo

Dracon

173 | 19

3.9 ГБ

В этой теме нет новых непрочитанных сообщений. Открытая могила / Open Grave [Ужасы, триллер, 2013] HDRip, dvo

Dracon

961 | 38

1.37 ГБ

В этой теме нет новых непрочитанных сообщений. Открытая могила / Open Grave [Ужасы, триллер, 2013] HDRip, avo

Dracon

42 | 1

1.37 ГБ

В этой теме нет новых непрочитанных сообщений. Я плюю на ваши могилы 3 / I Spit on Your Grave 3 (Р.Д. Браунштейн) [ужасы, триллер, 2015] HDRip, Mvo [iTunes]

Dracon

502 | 20

1.44 ГБ

В этой теме нет новых непрочитанных сообщений. Earthen Grave - Earthen Grave [2012, Traditional Doom, Heavy Metal, MP3]

PriZraK

0 | 1

143.54 МБ


Начать новую тему Ответить на тему  [ 1 сообщение ] 




Для Мосгорсуда, Роскомнадзора и рекламодателей:: mosgorsud-torrent[собачка]yandex.ru