Торрент файл
скачать торрент магнет ссылка Добавлен: 02 мар 2013, 18:09
Размер: 1.37 ГБ
Сидеров: 3
Личеров: 1
Автор

СообщениеДобавлено: 02 мар 2013, 18:09 

Не в сети
Супермодератор
Аватара пользователя
Дата регистрации:
15 фев 2012, 16:44
Возраст: 27
Спасибо: 5121 / 2089
Сообщения: 17296

Страна: США
Жанр:триллер, драма, криминал
Год выпуска: 2011
Продолжительность: 01:28:14
Перевод: Профессиональный (полное дублирование)
Субтитры: нет
Режиссер: Крис Джеролмо / Chris Gerolmo

В ролях: Лола Глаудини, Марк Хэрмон, Татьяна Маслани, Кейт Гринхаус, Арт Хиндл, Эйдан Дивайн, Афина Карканис, Ананд Раджарам, Род Уилсон, Марк Тейлор, Брэндон МакГибон, Эрик Вулф

Описание: Заместитель начальника полиции Лукас Давенпорт вступает в интеллектуальную схватку с искусным убийцей, который всегда на шаг впереди представителей власти и настолько предусмотрителен, что никто не может определить его слабые стороны и предугадать последующие действия.

Качество: HDTVRip
Контейнер: AVI
Видео: XviD, 720x400 (16:9), 2019 kbps, 23,976 fps, 0,292 bpp
Аудио: AC3 / 2.0 / 48 kHz / 192 kbps / 16 bit


Сценарий: Джон Сэндфорд / John Sandford, Крис Джеролмо / Chris Gerolmo
Продюсер: Стив Соломос / Steve Solomos, Ховард Браунштейн / Howard Braunstein, Марк Хэрмон / Mark Harmon, Майкл Джаффе / Michael Jaffe
Оператор: Стив Косенс / Steve Cosens
Композитор: Том Тирд / Tom Third

Мировая премьера: 6 ноября 2011




General
Complete name : F:Izoshrennyj.ybijca.2011.D_HDTVRip.avi
Format : AVI
Format/Info : Audio Video Interleave
File size : 1.37 GiB
Duration : 1h 28mn
Overall bit rate : 2 221 Kbps
Writing application : VirtualDubMod 1.5.10.3 | http://www.virtualdub-fr.org || (build 2550/release)
Writing library : VirtualDubMod build 2550/release

Video
ID : 0
Format : MPEG-4 Visual
Format profile : Advanced Simple@L5
Format settings, BVOP : 2
Format settings, QPel : No
Format settings, GMC : No warppoints
Format settings, Matrix : Default (MPEG)
Codec ID : XVID
Codec ID/Hint : XviD
Duration : 1h 28mn
Bit rate : 2 020 Kbps
Width : 720 pixels
Height : 400 pixels
Display aspect ratio : 16:9
Frame rate : 23.976 fps
Color space : YUV
Chroma subsampling : 4:2:0
Bit depth : 8 bits
Scan type : Progressive
Compression mode : Lossy
Bits/(Pixel*Frame) : 0.292
Stream size : 1.24 GiB (91%)
Writing library : XviD 1.2.1 (UTC 2008-12-04)

Audio
ID : 1
Format : AC-3
Format/Info : Audio Coding 3
Mode extension : CM (complete main)
Codec ID : 2000
Duration : 1h 28mn
Bit rate mode : Constant
Bit rate : 192 Kbps
Channel(s) : 2 channels
Channel positions : Front: L R
Sampling rate : 48.0 KHz
Bit depth : 16 bits
Compression mode : Lossy
Stream size : 121 MiB (9%)
Alignment : Split accross interleaves
Interleave, duration : 42 ms (1.00 video frame)
Interleave, preload duration : 500 ms







реклама партнёра


Вернуться к началу
 Профиль Отправить личное сообщение  
 
   Похожие торренты   Автор   Торрент   Размер 
В этой теме нет новых непрочитанных сообщений. Жертва / Prey [S02] (Ник Мерфи, Льюис Арнольд) [2015, криминал, драма, триллер, детектив, HDTVRip | ViruseProject]

Nickolas3434

62 | 6

1.78 ГБ

В этой теме нет новых непрочитанных сообщений. Жертва / Prey [02х01-02 из 03] (Ник Мерфи, Льюис Арнольд) [2015, триллер, драма, криминал, HDTVRip | SunshineStudio]

PriZraK

20 | 1

1019.74 МБ

В этой теме нет новых непрочитанных сообщений. Жертва / Prey [S02] (Ник Мерфи, Льюис Арнольд) [2015, криминал, драма, триллер, детектив, HDTVRip 720р | ViruseProject]

Nickolas3435

101 | 14

2.97 ГБ

В этой теме нет новых непрочитанных сообщений. Алфавитный убийца / The Alphabet Killer [Триллер, криминал, детектив, 2008] HDTVRip, Dvo

salma3

334 | 29

1.37 ГБ

В этой теме нет новых непрочитанных сообщений. Убийца в социальной сети / The Craigslist Killer [триллер, драма, криминал, 2011] DVDRip, Dvo

salma3

2 | 2

695.27 МБ

В этой теме нет новых непрочитанных сообщений. Человек, который плакал / Плачущий убийца / Crying Man / No Tears for the Dead [боевик, драма, криминал, 2014] HDTVRip, Dvo

salma3

214 | 11

1.46 ГБ

В этой теме нет новых непрочитанных сообщений. Убийца / Sicario [боевик, триллер, драма, криминал, детектив, 2015] BDRip-AVC, Dub

salma3

100 | 2

2.13 ГБ


Начать новую тему Ответить на тему  [ 1 сообщение ] 




Для Мосгорсуда, Роскомнадзора и рекламодателей:: mosgorsud-torrent[собачка]yandex.ru