Торрент файл
скачать торрент магнет ссылка Добавлен: 26 фев 2013, 14:25
Размер: 5.31 ГБ
Сидеров: 24
Личеров: 8
Автор

СообщениеДобавлено: 26 фев 2013, 14:25 

Не в сети
Дата регистрации:
30 дек 2012, 18:57
Спасибо: 3 / 0
Сообщения: 17
Паранормальное явление 1-4 Квадрология / Paranormal Activity 1-4


Год выпуска: 2007
Выпущено: USA
Жанр: Ужасы, Мистика
Продолжительность: 06:01:40
Перевод: Профессиональный (полное дублирование)Лицензия
Субтитры: Нет
Режиссер: Генри Джуст, Эриель Шульман
В ролях: Паранормальное явление 1
Кэти Фезерстон, Мика Слот, Марк Фредерикс, Эмбер Армстронг, Рэнди Макдауэлл, Эшли Палмер, Тим Пайпер, Кристал Картрайт
Паранормальное явление 2
Брайан Боланд (Daniel), Спрэг Грэйден (Kristi), Молли Эфраим (Ali), Вивис Кортес (Martine), Кэти Фезерстон (Katie), Мика Слот (Micah), Сет Гинсберг (Brad), Дэвид Биренд (Surveillance Camera Expert), Уильям Хуан Прието (Hunter Rey), Джексон Ксения Прието (Hunter Rey), Abby the Dog (Abby), Харпер Зелинский (Hunter Rey - infant)
Паранормальное явление 3
Спрэг Грэйден, Кристофер Николас Смит, Дастин Ингрэм, Кэти Фезерстон, Лоурен Биттнер, Хлоя Ксенджери, Джесика Браун, Брайан Боланд, Марк Фредерикс
Паранормальное явление 4
Кэтрин Ньютон, Кэти Фезерстон, Мэтт Шивли, Брэйди Аллен, Алиша Боэ, Томми Миранда, Роли дублировали:, Лиза Мартиросова, Екатерина Щанкина, Дмитрий Череватенко, Даня Бледный
[hr]
[hr]
Описание:
Паранормальное явление / Paranormal Activity (2007) DVDRip
Название: Паранормальное явление
Оригинальное название: Paranormal Activity
Год выхода: 2007
Жанр: ужасы, триллер, детектив
Режиссер: Орен Пели
В ролях: Кэти Фезерстон, Мика Слот, Марк Фредерикс, Эмбер Армстронг, Рэнди Макдауэлл, Эшли Палмер, Тим Пайпер, Кристал Картрайт

О фильме: Молодая пара проживает в доме, который, как они подозревают, посещается некой злой силой. Чтобы зафиксировать паранормальную активность, они настраивают видеокамеру, чтобы записать свидетельство существования этой силы, появляющейся исключительно ночью, когда они спят. Тут-то и начинается самое интересное… и страшное!

Продолжительность: 01:26:17
Перевод: Дубляж
Выпущено: США

Файл:
Качество: DVDRip
http://www.kinopoisk.ru/film/404366/
[Информация о видео]
Видеокодек: XVID - Декодер FFmpeg
Вход:XVID(12 bits)
Размер на входе: 720 x 400(1.80:1)
Выход: YUY2(16 bits)
Размер на выходе: 720 x 400(1.80:1)
Частота кадров: 24.00
BitRate:1864 Kbps

[Информация о звуке]
Аудиокодек: MPEG Audio Layer 3(0x55) - Декодер по умолчанию
Частота дискретизации: 48000 -> 48000 выборок/с.
Скорость потока: 0 -> 16 бит на компонент
Каналы: 2 -> 2 каналов
Bitrate: 128 kbps
Семпл http://multi-up.com/834318
Размер: 1,20 ГБ


Паранормальное явление 2 / Paranormal Activity 2 (2010) DVDRip By paschukay
Название: Паранормальное явление 2
Оригинальное название: Paranormal Activity 2
Год выхода: 2010
Жанр: ужасы, триллер, детектив
Режиссер: Тод 'Кип' Уильямс
В ролях: Брайан Боланд (Daniel), Спрэг Грэйден (Kristi), Молли Эфраим (Ali), Вивис Кортес (Martine), Кэти Фезерстон (Katie), Мика Слот (Micah), Сет Гинсберг (Brad), Дэвид Биренд (Surveillance Camera Expert), Уильям Хуан Прието (Hunter Rey), Джексон Ксения Прието (Hunter Rey), Abby the Dog (Abby), Харпер Зелинский (Hunter Rey - infant)

О фильме: После пережитых, как им казалось, серии «взломов» своего жилища, супруги решили установить камеры слежения по всему дому. И только теперь они понимают, что события, которые разворачиваются перед ними, куда более зловещие…

Продолжительность: 01:38:03
Перевод: Дубляж
Выпущено: США

Samplehttp://multi-up.com/834319
http://www.kinopoisk.ru/film/481706
Файл:
Качество: DVDRip
[Информация о видео]
Видеокодек: XVID - Декодер FFmpeg
Вход:XVID(12 bits)
Размер на входе: 720 x 400(1.80:1)
Выход: YUY2(16 bits)
Размер на выходе: 720 x 400(1.80:1)
Частота кадров: 23.98
BitRate:2509 Kbps
[Информация о звуке]
Аудиокодек: Dolby AC3(0x2000) - Декодер по умолчанию
Частота дискретизации: 48000 -> 48000 выборок/с.
Скорость потока: 0 -> 16 бит на компонент
Каналы: 6 -> 2 каналов
Bitrate: 448 kbps

Размер: 1,45Гб


Паранормальное явление 3 / Paranormal Activity 3 (2011) DVDRip
Название: Паранормальное явление 3
Оригинальное название: Paranormal Activity 3
Год выхода: 2011
Жанр: ужасы, триллер, детектив
Режиссер: Генри Джуст
В ролях: Спрэг Грэйден, Кристофер Николас Смит, Дастин Ингрэм, Кэти Фезерстон, Лоурен Биттнер, Хлоя Ксенджери, Джесика Браун, Брайан Боланд, Марк Фредерикс

О фильме: Действие фильма разворачивается в 1988 году. В доме, где живет семья с двумя детьми, начинают происходить странные вещи. Случилось это после того, как девочки Кэти и Кристи решили вызвать дух Кровавой Мэри и заснять все происходящее на видеокамеру. Никто не мог представить себе последствий детской шалости.

Продолжительность: 01:33:59
Перевод: Дубляж
Выпущено: США


Файл:
Качество: DVDRip
[Информация о звуке]
Аудиокодек: MPEG Audio Layer 3(0x55) - Декодер по умолчанию
Частота дискретизации: 48000 -> 48000 выборок/с.
Скорость потока: 0 -> 16 бит на компонент
Каналы: 2 -> 2 каналов
Bitrate: 128 kbps
[Информация о видео]
Видеокодек: XVID - Декодер FFmpeg
Вход:XVID(12 bits)
Размер на входе: 720 x 400(1.80:1)
Выход: YUY2(16 bits)
Размер на выходе: 720 x 400(1.80:1)
Частота кадров: 24.00
BitRate: 2127 Kbps

Размер: 1,25Гб



Год выпуска: 2012
Производство: США / Room 101
Жанр: Ужасы
Продолжительность: 01:27:08
Перевод: Профессиональный (полное дублирование) Чистый звук
Режиссер: Генри Джуст, Эриель Шульман

В ролях: Кэтрин Ньютон, Кэти Фезерстон, Мэтт Шивли, Брэйди Аллен, Алиша Боэ, Томми Миранда, Роли дублировали:, Лиза Мартиросова, Екатерина Щанкина, Дмитрий Череватенко, Даня Бледный

О фильме: Действие разворачивается спустя 5 лет с момента событий фильма «Паранормальное явление 2». Алекс и её бойфренд борются с паранормальной активностью в их доме.
Бюджет: $5 000 000

Качество: DVDRip
Формат: AVI
[Информация о видео]
Видеокодек: XVID - Декодер FFmpeg
Вход:XVID(12 bits)
Размер на входе: 720 x 400(1.80:1)
Выход: YUY2(16 bits)
Размер на выходе: 720 x 400(1.80:1)
Частота кадров: 24.00
BitRate: Неизвестно
[Информация о звуке]
Аудиокодек: MPEG Audio Layer 3(0x55) - Декодер по умолчанию
Частота дискретизации: 48000 -> 48000 выборок/с.
Скорость потока: 0 -> 16 бит на компонент
Каналы: 2 -> 2 каналов
Bitrate: 128 kbps
Автор рипа: deadmauVlad
Размер Фильма 1,39GB
Samplehttp://multi-up.com/823018


Доп. информация: R.G_deadmauVlad_&_paschukay &

















[hr]
[hr]
Media Info
***General***
Complete name : Паранормальное Явление.1.2007.Theatrical.Cut.DUAL.DVDRip.XviD.AC3
Format : AVI
Format/Info : Audio Video Interleave
Format profile : OpenDML
File size : 1.21 GiB
Duration : 1h 26mn
Overall bit rate : 2 009 Kbps

Video
ID : 0
Format : MPEG-4 Visual
Format profile : Simple@L3
Format settings, BVOP : No
Format settings, QPel : No
Format settings, GMC : No warppoints
Format settings, Matrix : Default (H.263)
Codec ID : XVID
Codec ID/Hint : XviD
Duration : 1h 26mn
Bit rate : 1 864 Kbps
Width : 720 pixels
Height : 400 pixels
Display aspect ratio : 16:9
Frame rate : 24.000 fps
Color space : YUV
Chroma subsampling : 4:2:0
Bit depth : 8 bits
Scan type : Progressive
Compression mode : Lossy
Bits/(Pixel*Frame) : 0.270
Stream size : 1.12 GiB (93%)
Writing library : XviD 1.2.1 (UTC 2008-12-04)

Audio
ID : 1
Format : MPEG Audio
Format version : Version 1
Format profile : Layer 3
Mode : Joint stereo
Mode extension : MS Stereo
Codec ID : 55
Codec ID/Hint : MP3
Duration : 1h 26mn
Bit rate mode : Constant
Bit rate : 128 Kbps
Channel(s) : 2 channels
Sampling rate : 48.0 KHz
Compression mode : Lossy
Stream size : 79.0 MiB (6%)
Alignment : Aligned on interleaves
Interleave, duration : 24 ms (0.58 video frame)
Writing library : LAME3.98.2
****Паранормальное явление 2****
General
Complete name :Паранормальное Явление.2.2007.Theatrical.Cut.DUAL.DVDRip.XviD.AC3_R.G_deadmauVlad_&_ paschukay.avi
Format : AVI
Format/Info : Audio Video Interleave
Format profile : OpenDML
File size : 1.60 GiB
Duration : 1h 31mn
Overall bit rate : 2 509 Kbps

Video
ID : 0
Format : MPEG-4 Visual
Format profile : Simple@L3
Format settings, BVOP : No
Format settings, QPel : No
Format settings, GMC : No warppoints
Format settings, Matrix : Default (H.263)
Codec ID : XVID
Codec ID/Hint : XviD
Duration : 1h 31mn
Bit rate : 2 364 Kbps
Width : 720 pixels
Height : 400 pixels
Display aspect ratio : 16:9
Frame rate : 24.000 fps
Color space : YUV
Chroma subsampling : 4:2:0
Bit depth : 8 bits
Scan type : Progressive
Compression mode : Lossy
Bits/(Pixel*Frame) : 0.342
Stream size : 1.50 GiB (94%)
Writing library : XviD 1.2.1 (UTC 2008-12-04)

Audio
ID : 1
Format : MPEG Audio
Format version : Version 1
Format profile : Layer 3
Mode : Joint stereo
Mode extension : MS Stereo
Codec ID : 55
Codec ID/Hint : MP3
Duration : 1h 31mn
Bit rate mode : Constant
Bit rate : 128 Kbps
Channel(s) : 2 channels
Sampling rate : 48.0 KHz
Compression mode : Lossy
Stream size : 83.4 MiB (5%)
Alignment : Aligned on interleaves
Interleave, duration : 24 ms (0.58 video frame)
Writing library : LAME3.98.2

****Паранормальное явление 3 ****
General
Complete name : Паранормальное Явление.3.2011.Theatrical.Cut.DUAL.DVDRip.XviD.AC3_R.G_deadmauVlad_&_ paschukay.avi
Format : AVI
Format/Info : Audio Video Interleave
Format profile : OpenDML
File size : 1.25 GiB
Duration : 1h 24mn
Overall bit rate : 2 127 Kbps

Video
ID : 0
Format : MPEG-4 Visual
Format profile : Simple@L3
Format settings, BVOP : No
Format settings, QPel : No
Format settings, GMC : No warppoints
Format settings, Matrix : Default (H.263)
Codec ID : XVID
Codec ID/Hint : XviD
Duration : 1h 24mn
Bit rate : 1 982 Kbps
Width : 720 pixels
Height : 400 pixels
Display aspect ratio : 16:9
Frame rate : 24.000 fps
Color space : YUV
Chroma subsampling : 4:2:0
Bit depth : 8 bits
Scan type : Progressive
Compression mode : Lossy
Bits/(Pixel*Frame) : 0.287
Stream size : 1.17 GiB (93%)
Writing library : XviD 1.2.1 (UTC 2008-12-04)

Audio
ID : 1
Format : MPEG Audio
Format version : Version 1
Format profile : Layer 3
Mode : Joint stereo
Mode extension : MS Stereo
Codec ID : 55
Codec ID/Hint : MP3
Duration : 1h 24mn
Bit rate mode : Constant
Bit rate : 128 Kbps
Channel(s) : 2 channels
Sampling rate : 48.0 KHz
Compression mode : Lossy
Stream size : 77.0 MiB (6%)
Alignment : Aligned on interleaves
Interleave, duration : 24 ms (0.58 video frame)
Writing library : LAME3.98.2
**********************Паранормальное явление 4 *******************
General
Complete name :Паранормальное Явление.4.2007.Theatrical.Cut.DUAL.DVDRip.XviD.AC3_R.G_deadmauVlad_&_ paschukay.avi
Format : AVI
Format/Info : Audio Video Interleave
Format profile : OpenDML
File size : 1.39 GiB
Duration : 1h 27mn
Overall bit rate : 2 291 Kbps

Video
ID : 0
Format : MPEG-4 Visual
Format profile : Simple@L3
Format settings, BVOP : No
Format settings, QPel : No
Format settings, GMC : No warppoints
Format settings, Matrix : Default (H.263)
Codec ID : XVID
Codec ID/Hint : XviD
Duration : 1h 27mn
Bit rate : 2 146 Kbps
Width : 720 pixels
Height : 400 pixels
Display aspect ratio : 16:9
Frame rate : 24.000 fps
Color space : YUV
Chroma subsampling : 4:2:0
Bit depth : 8 bits
Scan type : Progressive
Compression mode : Lossy
Bits/(Pixel*Frame) : 0.310
Stream size : 1.31 GiB (94%)
Writing library : XviD 1.2.1 (UTC 2008-12-04)

Audio
ID : 1
Format : MPEG Audio
Format version : Version 1
Format profile : Layer 3
Mode : Joint stereo
Mode extension : MS Stereo
Codec ID : 55
Codec ID/Hint : MP3
Duration : 1h 27mn
Bit rate mode : Constant
Bit rate : 128 Kbps
Channel(s) : 2 channels
Sampling rate : 48.0 KHz
Compression mode : Lossy
Stream size : 79.8 MiB (6%)
Alignment : Aligned on interleaves
Interleave, duration : 24 ms (0.58 video frame)
Writing library : LAME3.98.2




реклама партнёра


Вернуться к началу
 Профиль Отправить личное сообщение  
 
   Похожие торренты   Автор   Торрент   Размер 
В этой теме нет новых непрочитанных сообщений. Паранормальное явление 5: Призраки в 3D / Paranormal Activity: The Ghost Dimension [ужасы, 2015] HDRip, dub [iTunes]

Dracon

355 | 7

1.37 ГБ

В этой теме нет новых непрочитанных сообщений. Паранормальное явление: Метка Дьявола / Paranormal Activity: The Marked Ones [Ужасы, триллер, 2013] HDRip, Dub [iTunes]

Dracon

301 | 19

1.36 ГБ

В этой теме нет новых непрочитанных сообщений. Паранормальное явление: Метка Дьявола / Paranormal Activity: The Marked Ones [ужасы, триллер, 2013] DVD5, Dub+Sub [Лицензия]

Dracon

5 | 5

4.23 ГБ

В этой теме нет новых непрочитанных сообщений. Паранормальное явление: Метка Дьявола / Paranormal Activity: The Marked Ones [Ужасы, триллер, 2013] BDRip 720p, Dub [iTunes]

Dracon

106 | 4

4.57 ГБ

В этой теме нет новых непрочитанных сообщений. Паранормальное явление: Метка Дьявола / Paranormal Activity: The Marked Ones [ужасы, триллер, 2013] HDRip, Dub [Чистый звук]

Dracon

596 | 11

1.37 ГБ

В этой теме нет новых непрочитанных сообщений. Паранормальное явление: Метка Дьявола / Paranormal Activity: The Marked Ones [Ужасы, триллер, 2013] BDRip 720p, Dub [чистый звук]

Dracon

237 | 19

4.46 ГБ

В этой теме нет новых непрочитанных сообщений. Паранормальное явление: Метка Дьявола / Paranormal Activity: The Marked Ones [Ужасы, триллер, 2013] BDRip 1080p, Dub [чистый звук]

Dracon

276 | 14

6.67 ГБ


Начать новую тему Ответить на тему  [ 1 сообщение ] 




Для Мосгорсуда, Роскомнадзора и рекламодателей:: mosgorsud-torrent[собачка]yandex.ru