Торрент файл
скачать торрент магнет ссылка Добавлен: 14 фев 2013, 20:44
Размер: 1.03 ГБ
Сидеров: 0
Личеров: 3
Автор

СообщениеДобавлено: 14 фев 2013, 20:44 

Не в сети
Дата регистрации:
30 дек 2012, 18:57
Спасибо: 3 / 0
Сообщения: 17
Танец мертвецов / Dance of the Dead


Страна: Сша
Жанр: Ужасы, приключения, комедия
Год выпуска: 2008
Продолжительность: 01:27:08

Перевод: Одноголосый закадровый
Cубтитры: нет
Оригинальная аудиодорожка: русский

Режиссер: Грегг Бишоп / Gregg Bishop

В ролях: Джаред Кузнич, Грейсон Чадвик, Чандлер Дэрби, Карисса Капибьянко, Рэнди Макдауэлл, Марк Линч, Джастин Велборн, Марк Оливер, Блэр Редфорд...

Описание: Ученики средней школы заняты подготовкой к предстоящему вечеру танцев. Из всей этой типичной предпраздничной суматохи выбиваются несколько людей, совсем не похожих друг на друга, кроме одного - они неудачники, лузеры, которые не попали на этот праздник. Но именно им предстоит объединиться и попытаться спасти остальных людей от голодных зомби, разбуженных атомной электростанцией и так некстати решивших вторгнуться на праздник, где их никто не ждал.

Доп. информация: Релиз от: R.G deadmauVlad & ****paschukay***

Качество видео: DVDRip
Формат видео: AVI

Видео: : Видеокодек: XVID - Декодер FFmpeg Вход:XVID(12 bits) Размер : 640 x 352(1.82:1) Частота кадров: 29.97
Аудио: MPEG Audio Layer 3,44100 -> 44100 выборок/с. Каналы: 2 -> 2 каналов Bitrate: 128 kbps
E:\Фильмы\Танец мертвецов DVDRip R.G deadmauVlad & paschukay\Tanec.mertvecov.2008.DVDRip.1015MB.avi
General
Complete name : E:\Фильмы\Танец мертвецов DVDRip R.G deadmauVlad & paschukay\Tanec.mertvecov.2008.DVDRip.1015MB.avi
Format : AVI
Format/Info : Audio Video Interleave
Format profile : OpenDML
File size : 1.03 GiB
Duration : 1h 27mn
Overall bit rate : 1 694 Kbps
Video #0
ID : 0
Format : MPEG-4 Visual
Format profile : Simple@L3
Format settings, BVOP : No
Format settings, QPel : No
Format settings, GMC : No warppoints
Format settings, Matrix : Default (H.263)
Codec ID : XVID
Codec ID/Hint : XviD
Duration : 1h 27mn
Bit rate : 1 549 Kbps
Width : 640 pixels
Height : 352 pixels
Display aspect ratio : 16:9
Frame rate : 29.970 fps
Original frame rate : 29.000 fps
Color space : YUV
Chroma subsampling : 4:2:0
Bit depth : 8 bits
Scan type : Progressive
Compression mode : Lossy
Bits/(Pixel*Frame) : 0.229
Stream size : 965 MiB (91%)
Writing library : XviD 1.2.1 (UTC 2008-12-04)
Audio #1
ID : 1
Format : MPEG Audio
Format version : Version 1
Format profile : Layer 3
Mode : Joint stereo
Codec ID : 55
Codec ID/Hint : MP3
Duration : 1h 27mn
Bit rate mode : Constant
Bit rate : 128 Kbps
Channel(s) : 2 channels
Sampling rate : 44.1 KHz
Compression mode : Lossy
Stream size : 79.8 MiB (8%)
Alignment : Aligned on interleaves
Interleave, duration : 26 ms (0.78 video frame)
Writing library : LAME3.98.2










реклама партнёра


Вернуться к началу
 Профиль Отправить личное сообщение  
 
   Похожие торренты   Автор   Торрент   Размер 
В этой теме нет новых непрочитанных сообщений. Слепые мертвецы 2: Возвращение слепых мертвецов / Blind Dead 2: Return of the Evil Dead [Ужасы, 1973] DVDRip, Avo

salma3

0 | 2

1.46 ГБ

В этой теме нет новых непрочитанных сообщений. Гол живых мертвецов / Goal of the Dead [ужасы, комедия, 2014] HDRip, avo

Dracon

260 | 12

1.34 ГБ

В этой теме нет новых непрочитанных сообщений. Гол живых мертвецов / Goal of the Dead [ужасы, комедия, 2014] BDRip 1080p, Avo

salma3

60 | 4

8.9 ГБ

В этой теме нет новых непрочитанных сообщений. Гол живых мертвецов / Goal of the Dead [ужасы, комедия, 2014] BDRip 720p, avo

Dracon

126 | 5

5.61 ГБ

В этой теме нет новых непрочитанных сообщений. Оргия мертвецов / Orgy of the Dead [ужасы, фэнтези, эротика, 1965] DVDRip, Avo

salma3

14 | 11

1.44 ГБ

В этой теме нет новых непрочитанных сообщений. Возвращение живых мертвецов / The Return of the Living Dead [ужасы, фантастика, комедия, 1985] HDRip, Dvo [НТВ+]

salma3

24 | 4

1.45 ГБ

В этой теме нет новых непрочитанных сообщений. Возвращение живых мертвецов 3 / Return of the Living Dead 3 [ужасы, фантастика, мелодрама, 1993] DVDRip, Mvo

salma3

6 | 6

1.37 ГБ


Начать новую тему Ответить на тему  [ 1 сообщение ] 




Для Мосгорсуда, Роскомнадзора и рекламодателей:: mosgorsud-torrent[собачка]yandex.ru