Торрент файл
скачать торрент магнет ссылка Добавлен: 14 фев 2013, 16:33
Размер: 1.37 ГБ
Сидеров: 14
Личеров: 5
Статус: (salma3)
Автор

СообщениеДобавлено: 14 фев 2013, 16:33 

Не в сети
Супермодератор
Аватара пользователя
Дата регистрации:
15 фев 2012, 16:44
Возраст: 27
Спасибо: 5139 / 2089
Сообщения: 17411

Марсианский дозор / Top of the Food Chain

Год выхода: 1999
Жанр: ужасы, фантастика, комедия
Режиссер: Джон Пейз
В ролях: Роберт Бокстэл, Лорри Айерс, Рон Гэбриел, Бернард Беренс, Джеймс Оллоди, Питер Дональдсон, Фиона Лоуи, Кэмпбелл Скотт, Мэгги Баттерфилд, Гарди Т. Лайнем

О фильме:
Они уже среди нас! Приглядитесь внимательно к своему соседу. Ничего не замечаете необычного? Как изменилась походка? Появился легкий акцент? Он пропадает где-то по ночам? Верный признак того, что ваш сосед… инопланетянин! Их количество растет с каждым днем! И скоро они уничтожат нас… А-А-А-А-А-А-А! Вселенская незабываемая комедия, выдержанная в лучших традициях пародийного жанра, напичканная уморительными шутками, нелепыми ситуациями, озорными приколами и безумными выходками героев, подарит вам массу позитивных эмоций и зарядит отличным настроением!



Страна: Канада
Студия: Bedard/Lalonde Amusements, Space: The Imagination Station, The Ontario Film Development Corporation, Upstart Pictures, Victor Film Company (II)
Продолжительность: 01:28:25
Перевод: Профессиональный (многоголосый закадровый)

Файл
Кодек: XviD
Качество: DVDRip
Видео: 1822 Кбит/с, 704x528, 25.000 кадр/с
Звук: АС3, 6 ch, 384 Кбит/с


Полное имя : Marsianskij.Dozor.1999.XviD.DVDRip.avi
Формат : AVI
Формат/Информация : Audio Video Interleave
Размер файла : 1,37 Гбайт
Продолжительность : 1 ч. 28 м.
Общий поток : 2216 Кбит/сек
Программа кодирования : VirtualDubMod 1.5.10.3 | http://www.virtualdub-fr.org || (build 2550/release)
Библиотека кодирования : VirtualDubMod build 2550/release

Видео
Идентификатор : 0
Формат : MPEG-4 Visual
Профиль формата : Advanced Simple@L5
Параметр BVOP формата : 1
Параметр QPel формата : Нет
Параметр GMC формата : Без точки перехода
Параметр матрицы формата : Выборочная
Идентификатор кодека : XVID
Идентификатор кодека/Подсказка : XviD
Продолжительность : 1 ч. 28 м.
Битрейт : 1822 Кбит/сек
Ширина : 704 пикселя
Высота : 528 пикселей
Соотношение сторон : 4:3
Частота кадров : 25,000 кадров/сек
Цветовое пространство : YUV
Субдискретизация насыщенности : 4:2:0
Битовая глубина : 8 бит
Тип развёртки : Прогрессивная
Метод сжатия : С потерями
Бит/(Пиксели*Кадры) : 0.196
Размер потока : 1,13 Гбайт (82%)
Библиотека кодирования : XviD 64

Аудио
Идентификатор : 1
Формат : AC-3
Формат/Информация : Audio Coding 3
Расширение режима : CM (complete main)
Параметр Endianness формата : Big
Идентификатор кодека : 2000
Продолжительность : 1 ч. 28 м.
Вид битрейта : Постоянный
Битрейт : 384 Кбит/сек
Каналы : 6 каналов
Расположение каналов : Front: L C R, Side: L R, LFE
Частота : 48,0 КГц
Битовая глубина : 16 бит
Метод сжатия : С потерями
Размер потока : 243 Мбайт (17%)
Выравнивание : Разделение по промежуткам
Продолжительность промежутка : 40 мс. (1,00 видеокадр)
Время предзагрузки промежутка : 500 мс.







реклама партнёра


Вернуться к началу
 Профиль Отправить личное сообщение  
 
   Похожие торренты   Автор   Торрент   Размер 
В этой теме нет новых непрочитанных сообщений. The Bunny The Bear - Food Chain (Deluxe Edition) [2014, Post-Hardcore, Experimental, Electronic, MP3]

PriZraK

0 | 1

121.65 МБ

В этой теме нет новых непрочитанных сообщений. Пища Богов / The Food of the Gods [ужасы, фантастика, 1976] DVDRip, Avo

salma3

16 | 4

1.37 ГБ

В этой теме нет новых непрочитанных сообщений. Летучие мыши / Bats [ужасы, фантастика, триллер, 1999] DVDRip, Mvo

salma3

6 | 5

1.46 ГБ

В этой теме нет новых непрочитанных сообщений. Недотепы / Chain of Fools [комедия, криминал, 2000] WEB-DL 1080p, Dub+Dvo

salma3

46 | 2

3.12 ГБ

В этой теме нет новых непрочитанных сообщений. Кулинарная книга любви / The Food Guide To Love [мелодрама, комедия, 2013] HDRip, Avo

Dracon

134 | 7

1.46 ГБ

В этой теме нет новых непрочитанных сообщений. Экзистенция / eXistenZ [ужасы, фантастика, триллер, 1999] BDRip, Dvo+Avo+Sub

salma3

63 | 2

1.45 ГБ

В этой теме нет новых непрочитанных сообщений. Бензин, еда, жилье / Gas, Food Lodging [драма, мелодрама, 1992] DVDRip, Mvo

salma3

20 | 3

1.32 ГБ


Начать новую тему Ответить на тему  [ 1 сообщение ] 




Для Мосгорсуда, Роскомнадзора и рекламодателей:: mosgorsud-torrent[собачка]yandex.ru