Торрент файл
скачать торрент магнет ссылка Добавлен: 12 фев 2013, 23:10
Размер: 746.67 МБ
Сидеров: 10
Личеров: 4
Статус: (salma3)
Автор

СообщениеДобавлено: 12 фев 2013, 23:10 

В сети
Супермодератор
Аватара пользователя
Дата регистрации:
15 фев 2012, 16:44
Возраст: 27
Спасибо: 5143 / 2090
Сообщения: 17475

Демоны 2 / Dèmoni 2 / Demons 2

Год выхода: 1986
Жанр: ужасы
Режиссер: Ламберто Бава / Lamberto Bava
В ролях: Дэвид Эдвин Найт, Нэнси Брилли, Коралина Катальди-Тассони, Бобби Родс, Азия Ардженто, Вирджиния Брайант, Анита Бартолуччи, Антонио Кантафора, Луиза Пассега, Давид Маротта, Марко Вивио, Мишель Мирабелла, Лоренцо Джоиелли, Лино Салемме, Мария Чиара Сассо, Дарио Казалини, Андреа Гаринеи, Люка Де Нардо, Кэролайн Кристина Ланд, Карен Дженнаро, Марина Лои, Сильвия Роза, Лоренцо Флаэрти, Андреа Спера, Паскаль Персиано, Роберт Чилкотт, Элиана Мильо, Бруно Билотта, Фурио Билотта, Джованна Пини, Стефано Молинари, Ким Рон, Ламберто Бава, Виктор Бирд

О фильме:
У молодой девушки по имени Салли сегодня вечеринка. Друзья, музыка, выпивка… Но вот в самый разгар веселья, кто-то включает телевизор, по которому идет передача о демонах.
Дальше происходит невероятное — демон из фильма проникает в дом Салли сквозь телевизор, и гостям становится не до смеха…

зрителям, достигшим 16 лет

Страна: Италия
Продолжительность: 01:31:05
Перевод: Профессиональный (многоголосый закадровый)
Файл
Кодек: XviD
Качество: BDRip [BDRemux 1080p]
Видео: 688x416 (1.654), 23.976 fps, 1 009 Kbps, 0.147 Bits/(Pixel*Frame)
Звук: MP3, 48 KHz, 128 Kbps, 2 channels

General
Complete name: D:Demony.2.1986.P.BDRip.XviD.mp3.747mb.avi
Format: AVI
Format/Info: Audio Video Interleave
File size: 747 MiB
Duration: 1h 31mn
Overall bit rate: 1 146 Kbps
Writing application: VirtualDubMod 1.5.10.2 (build 2540/release)
Writing library: VirtualDubMod build 2540/release

Video
ID: 0
Format: MPEG-4 Visual
Format profile: Advanced Simple@L5
Format settings, BVOP: 1
Format settings, QPel: No
Format settings, GMC: No warppoints
Format settings, Matrix: Default (MPEG)
Codec ID: XVID
Codec ID/Hint: XviD
Duration: 1h 31mn
Bit rate: 1 009 Kbps
Width: 688 pixels
Height: 416 pixels
Display aspect ratio: 1.654
Frame rate: 23.976 fps
Color space: YUV
Chroma subsampling: 4:2:0
Bit depth: 8 bits
Scan type: Progressive
Compression mode: Lossy
Bits/(Pixel*Frame): 0.147
Stream size: 657 MiB (88%)
Writing library: XviD 1.2.1 (UTC 2008-12-04)

Audio
ID: 1
Format: MPEG Audio
Format version: Version 1
Format profile: Layer 3
Mode: Joint stereo
Mode extension: MS Stereo
Codec ID: 55
Codec ID/Hint: MP3
Duration: 1h 31mn
Bit rate mode: Constant
Bit rate: 128 Kbps
Channel(s): 2 channels
Sampling rate: 48.0 KHz
Compression mode: Lossy
Stream size: 83.4 MiB (11%)
Alignment: Aligned on interleaves
Interleave, duration: 42 ms (1.00 video frame)
Interleave, preload duration: 504 ms





реклама партнёра


Вернуться к началу
 Профиль Отправить личное сообщение  
 
   Похожие торренты   Автор   Торрент   Размер 
В этой теме нет новых непрочитанных сообщений. Демоны / Demons / Dèmoni [Ужасы, 1985] DVD5, Mvo

salma3

10 | 3

4.37 ГБ

В этой теме нет новых непрочитанных сообщений. Демоны 2 / Demoni 2: L'incubo ritorna [ужасы, 1986] BDRip 1080p, Mvo

salma3

4 | 5

11.19 ГБ

В этой теме нет новых непрочитанных сообщений. Демоны / Demoni [ужасы, 1985] BDRip 720p, Mvo

salma3

14 | 14

4.31 ГБ

В этой теме нет новых непрочитанных сообщений. Демоны / Demons [ужасы, 1985] BDRip 720p, Mvo+Avo

salma3

24 | 8

4.92 ГБ

В этой теме нет новых непрочитанных сообщений. Демоны / Demons [ужасы, 1985] BDRemux 1080p, MVo+Avo+Sub

salma3

0 | 44

16.97 ГБ

В этой теме нет новых непрочитанных сообщений. Внутренние демоны / Inner Demons (Сет Гроссман) [Ужасы, 2014] WEB-DL 720p, avo+sub

Dracon

4 | 2

2.67 ГБ

В этой теме нет новых непрочитанных сообщений. Демоны / Les démons [драма, 2015] WEB-DLRip, Mvo

salma3

38 | 1

1.45 ГБ


Начать новую тему Ответить на тему  [ 1 сообщение ] 




Для Мосгорсуда, Роскомнадзора и рекламодателей:: mosgorsud-torrent[собачка]yandex.ru