Торрент файл
скачать торрент магнет ссылка Добавлен: 12 фев 2013, 13:57
Размер: 1.45 ГБ
Сидеров: 7
Личеров: 6
Статус: (salma3)
Автор

СообщениеДобавлено: 12 фев 2013, 13:57 

Не в сети
Супермодератор
Аватара пользователя
Дата регистрации:
15 фев 2012, 16:44
Возраст: 27
Спасибо: 5130 / 2089
Сообщения: 17350

Страна: США
Жанр: драма, комедия, криминал
Год выпуска: 1989
Продолжительность: 01:35:43
Перевод: Профессиональный (многоголосый, закадровый)
Режиссер: Андрей Кончаловский

В ролях: Джеймс Белуши, Вупи Голдберг, Карен Блэк, Эрнестин МакКлендон, Нэнси Парсонс, Энн Рэмси, Би Ричардс, Трейси Уолтер, Винсент Скьявелли, Фриц Фельд,,,

Описание: Она безжалостна, а он наивен и добродушен. Они такие разные, но их что-то объединяет. Что-то, что поможет совершить вместе самое главное путешествие в жизни. Путешествие, в котором им нечего терять...



MPAA: R - Лицам до 17 лет обязательно присутствие взрослого


Качество: DVDRip |
Контейнер: AVI
Исходник: DVD5
Видео: XviD, 704x528 (4:3), 1970 kbps, 25 fps, 0,212 bpp
Аудио: AC3 / 2.0 / 48 kHz / 192 kbps / 16 bit
Семпл


General
Complete name: E:ВидеоHomer And Eddy_1989_DVDRip_MVO_ot_Youtracker_by_Дядя_Лёша.avi
Format: AVI
Format/Info: Audio Video Interleave
File size: 1.45 GiB
Duration: 1h 35mn
Overall bit rate: 2 172 Kbps
Writing application: VirtualDubMod 1.5.10.3 | http://www.virtualdub-fr.org || (build 2550/release)
Writing library: VirtualDubMod build 2550/release

Video
ID: 0
Format: MPEG-4 Visual
Format profile: Advanced Simple@L5
Format settings, BVOP: 2
Format settings, QPel: No
Format settings, GMC: No warppoints
Format settings, Matrix: Custom
Muxing mode: Packed bitstream
Codec ID: XVID
Codec ID/Hint: XviD
Duration: 1h 35mn
Bit rate: 1 970 Kbps
Width: 704 pixels
Height: 528 pixels
Display aspect ratio: 4:3
Frame rate: 25.000 fps
Color space: YUV
Chroma subsampling: 4:2:0
Bit depth: 8 bits
Scan type: Progressive
Compression mode: Lossy
Bits/(Pixel*Frame): 0.212
Stream size: 1.32 GiB (91%)
Writing library: XviD 65

Audio
ID: 1
Format: AC-3
Format/Info: Audio Coding 3
Mode extension: CM (complete main)
Codec ID: 2000
Duration: 1h 35mn
Bit rate mode: Constant
Bit rate: 192 Kbps
Channel(s): 2 channels
Channel positions: Front: L R
Sampling rate: 48.0 KHz
Bit depth: 16 bits
Compression mode: Lossy
Stream size: 131 MiB (9%)
Alignment: Split accross interleaves
Interleave, duration: 40 ms (1.00 video frame)
Interleave, preload duration: 500 ms





реклама партнёра


Вернуться к началу
 Профиль Отправить личное сообщение  
 
   Похожие торренты   Автор   Торрент   Размер 
В этой теме нет новых непрочитанных сообщений. Эдди «Орел» / Eddie the Eagle [драма, комедия, биография, спорт, 2016] BDRip, Dub [лицензия]

salma3

286 | 21

1.46 ГБ

В этой теме нет новых непрочитанных сообщений. Эдди «Орел» / Eddie the Eagle ( драма, комедия, биография, спорт, 2016) BDRip 720p от HELLYWOOD | Лицензия

marya111

0 | 0

4.36 ГБ

В этой теме нет новых непрочитанных сообщений. Убить короля / Номер в Шангри-Ла / Kill the King / Shangri-La Suite (Эдди О’Кифи) [2015, Драма, мелодрама, криминал, BDRip] avo

marya111

255 | 24

1.45 ГБ

В этой теме нет новых непрочитанных сообщений. Плюшка / Cookie [комедия, криминал, 1989] DVDRip, Avo

salma3

1 | 2

1.43 ГБ

В этой теме нет новых непрочитанных сообщений. Медвежатники / Breaking In [комедия, приключения, криминал, 1989] DVDRip, Mvo

salma3

13 | 5

1.47 ГБ

В этой теме нет новых непрочитанных сообщений. Беспредел [Драма, криминал, 1989] DVDRip-AVC

Dracon

224 | 9

2.09 ГБ

В этой теме нет новых непрочитанных сообщений. Триады: Внутренние Дела / Wo zai hei she hui de ri zi [драма, криминал, 1989] DVDRip, Avo

salma3

13 | 3

1.46 ГБ


Начать новую тему Ответить на тему  [ 1 сообщение ] 




Для Мосгорсуда, Роскомнадзора и рекламодателей:: mosgorsud-torrent[собачка]yandex.ru