Торрент файл
скачать торрент магнет ссылка Добавлен: 11 фев 2013, 23:12
Размер: 746.26 МБ
Сидеров: 17
Личеров: 3
Статус: (salma3)
Автор

СообщениеДобавлено: 11 фев 2013, 23:12 

Не в сети
Супермодератор
Аватара пользователя
Дата регистрации:
15 фев 2012, 16:44
Возраст: 27
Спасибо: 5132 / 2089
Сообщения: 17376

Демоны / Dèmoni / Demons

Год выхода: 1985
Жанр: ужасы
Режиссер: Ламберто Бава / Lamberto Bava
В ролях: Урбано Барберини, Наташа Хови, Карл Синни, Фьоре Ардженто, Паола Коццо, Фабиола Толедо, Николетта Элми, Stelio Candelli, Николь Тессьер, Джеретта Джеретта...

О фильме:
Молодая девушка Шерил вместе с подругой получает в метро приглашение от странного человека в серебряной маске на премьерный показ нового фильма ужасов о демонах, нашествие которых якобы предсказал Нострадамус.
Сеанс должен состоятся в одном из только что отремонтированных берлинских кинотеатров под названием «Метрополь». В его фойе одна из посетительниц видит манекен в серебряной маске демона и шутки ради примеряет эту маску, чтобы сфотографироваться в ней. Поранившись обо что-то острое внутри маски, девушка с недовольным видом идет в зал. Происходящее на экране странно напоминает то, что в действительности произошло перед сеансом — та же маска и кто-то из героев поранился о нее… Как раз на моменте, когда молодой человек на экране читает отрывок из книги Нострадамуса, повествующий о том, что всякий, надевший маску, превратится в демона, поранившейся посетительнице становится плохо, и она идет в женскую комнату лишь для того… чтобы пророчество Нострадамуса сбылось…
Очень скоро и остальные зрители кинотеатра убедятся в том, что демоны бывают не только на экране, и Шерил вместе с ее друзьями по несчастью предстоит кровавая схватка с полчищами порождений ада…


зрителям, достигшим 16 лет

Страна: Италия
Продолжительность: 01:28:36
Перевод: Профессиональный (многоголосый закадровый) СОЮЗ Видео

Файл
Кодек: XviD
Качество: BDRip [BDRemux 1080p]
Видео: 688x416 (1.654), 23.976 fps, 1 040 Kbps, 0.152 Bits/(Pixel*Frame)
Звук: MP3, 48 KHz, 128 Kbps, 2 channels

General
Complete name: D:Demony.1985.P.BDRip.XviD.mp3.746mb.avi
Format: AVI
Format/Info: Audio Video Interleave
File size: 746 MiB
Duration: 1h 28mn
Overall bit rate: 1 178 Kbps
Writing application: VirtualDubMod 1.5.10.2 (build 2540/release)
Writing library: VirtualDubMod build 2540/release

Video
ID: 0
Format: MPEG-4 Visual
Format profile: Advanced Simple@L5
Format settings, BVOP: 1
Format settings, QPel: No
Format settings, GMC: No warppoints
Format settings, Matrix: Default (MPEG)
Codec ID: XVID
Codec ID/Hint: XviD
Duration: 1h 28mn
Bit rate: 1 040 Kbps
Width: 688 pixels
Height: 416 pixels
Display aspect ratio: 1.654
Frame rate: 23.976 fps
Color space: YUV
Chroma subsampling: 4:2:0
Bit depth: 8 bits
Scan type: Progressive
Compression mode: Lossy
Bits/(Pixel*Frame): 0.152
Stream size: 659 MiB (88%)
Writing library: XviD 1.2.1 (UTC 2008-12-04)

Audio
ID: 1
Format: MPEG Audio
Format version: Version 1
Format profile: Layer 3
Mode: Joint stereo
Mode extension: MS Stereo
Codec ID: 55
Codec ID/Hint: MP3
Duration: 1h 28mn
Bit rate mode: Constant
Bit rate: 128 Kbps
Channel(s): 2 channels
Sampling rate: 48.0 KHz
Compression mode: Lossy
Stream size: 81.1 MiB (11%)
Alignment: Aligned on interleaves
Interleave, duration: 42 ms (1.00 video frame)
Interleave, preload duration: 504 ms





реклама партнёра


Вернуться к началу
 Профиль Отправить личное сообщение  
 
   Похожие торренты   Автор   Торрент   Размер 
В этой теме нет новых непрочитанных сообщений. Демоны / Demons / Dèmoni [Ужасы, 1985] DVD5, Mvo

salma3

10 | 3

4.37 ГБ

В этой теме нет новых непрочитанных сообщений. Демоны / Demoni [ужасы, 1985] BDRip 720p, Mvo

salma3

14 | 14

4.31 ГБ

В этой теме нет новых непрочитанных сообщений. Демоны / Demons [ужасы, 1985] BDRip 720p, Mvo+Avo

salma3

24 | 8

4.92 ГБ

В этой теме нет новых непрочитанных сообщений. Демоны / Demons [ужасы, 1985] BDRemux 1080p, MVo+Avo+Sub

salma3

0 | 44

16.97 ГБ

В этой теме нет новых непрочитанных сообщений. Демоны 2 / Demoni 2: L'incubo ritorna [ужасы, 1986] BDRip 1080p, Mvo

salma3

4 | 5

11.19 ГБ

В этой теме нет новых непрочитанных сообщений. Внутренние демоны / Inner Demons (Сет Гроссман) [Ужасы, 2014] WEB-DL 720p, avo+sub

Dracon

4 | 2

2.67 ГБ

В этой теме нет новых непрочитанных сообщений. Демоны / Les démons [драма, 2015] WEB-DLRip, Mvo

salma3

38 | 1

1.45 ГБ


Начать новую тему Ответить на тему  [ 1 сообщение ] 




Для Мосгорсуда, Роскомнадзора и рекламодателей:: mosgorsud-torrent[собачка]yandex.ru