Торрент файл
скачать торрент магнет ссылка Добавлен: 10 фев 2013, 21:56
Размер: 743.98 МБ
Сидеров: 1
Личеров: 3
Статус: (salma3)
Автор

СообщениеДобавлено: 10 фев 2013, 21:56 

Не в сети
Супермодератор
Аватара пользователя
Дата регистрации:
15 фев 2012, 16:44
Возраст: 27
Спасибо: 5130 / 2089
Сообщения: 17350
Страна: США
Производство: Incorporated Television Company (ITC),Lord Grade
Жанр:драма, вестерн
Год выпуска: 1981
Продолжительность: 01:37:19
Перевод: Профессиональный (многоголосый, закадровый)
Оригинальная аудиодорожка: нет
Cубтитры: нет
Режиссер: Дэвид Грин / David Greene
В ролях: Ян-Майкл Винсент, Ким Бейсингер, Майкл Паркс, Гейлард Сартейн, Сьерра Пешёр, Джон Чэппел, Таня Такер, Дэрил Ханна, Льюис Ван Берген, Тед Нили...

Описание:
Кайл Ричардсон работает на бесперспективной работе — на маленькой фабрике в центре Техаса. По уик-эндам он вместе с приятелями любит смотреть старые фильмы в местном салуне. Его пьянство сказывается на его отношениях с его девушкой Джоди Линн Палмер.
Наконец Джоди ставит ультиматум: или он успокоится и женится на ней, или она переедет в Калифорнию, где попробует начать карьеру певицы в стиле кантри-энд-вестерн.





Исходник: DVD5 R5
Тип релиза: DVDRip
Контейнер: AVI
Видео: 640x384 (1,667:1), 25 fps, XviD ~ 931 kbps avg, 0.152 bit/pixel
Аудио: 48 kHz, Dolby MP3 2.0, 128 kbps



Общее
Полное имя: Surovaya.strana.1981.DVDRip-745_[Youtracker]_by_AVP Studio.avi
Формат: AVI
Формат/Информация: Audio Video Interleave
Размер файла: 744 Мбайт
Продолжительность: 1 ч. 37 м.
Общий поток: 1069 Кбит/сек
Программа кодирования: VirtualDubMod 1.5.10.3 | http://www.virtualdub-fr.org || (build 2550/release)
Библиотека кодирования: VirtualDubMod build 2550/release

Видео
Идентификатор: 0
Формат: MPEG-4 Visual
Профиль формата: Advanced Simple@L5
Параметр BVOP формата: 1
Параметр QPel формата: Нет
Параметр GMC формата: Без точки перехода
Параметр матрицы формата: Выборочная
Идентификатор кодека: XVID
Идентификатор кодека/Подсказка: XviD
Продолжительность: 1 ч. 37 м.
Битрейт: 931 Кбит/сек
Ширина: 640 пикселей
Высота: 384 пикселя
Соотношение сторон: 1,667
Частота кадров: 25,000 кадров/сек
Цветовое пространство: YUV
Субдискретизация насыщенности: 4:2:0
Битовая глубина: 8 бит
Тип развёртки: Прогрессивная
Метод сжатия: С потерями
Бит/(Пиксели*Кадры): 0.152
Размер потока: 648 Мбайт (87%)
Библиотека кодирования: XviD 65

Аудио
Идентификатор: 1
Формат: MPEG Audio
Версия формата: Version 1
Профиль формата: Layer 3
Идентификатор кодека: 55
Идентификатор кодека/Подсказка: MP3
Продолжительность: 1 ч. 37 м.
Вид битрейта: Постоянный
Битрейт: 128 Кбит/сек
Каналы: 2 канала
Частота: 48,0 КГц
Метод сжатия: С потерями
Размер потока: 89,1 Мбайт (12%)
Выравнивание: Соединение по промежуткам
Продолжительность промежутка: 40мс. (1,00 видеокадр)
Время предзагрузки промежутка: 504мс.
Библиотека кодирования: L3.99r
Настройки программы: -m s -V 4 -q 2 -lowpass 17 -b 128


Раздача от:




реклама партнёра


Вернуться к началу
 Профиль Отправить личное сообщение  
 
   Похожие торренты   Автор   Торрент   Размер 
В этой теме нет новых непрочитанных сообщений. Счастливая страна / Lucky Country [Триллер, драма, вестерн, история, 2009] WEB-DLRip, Dvo

salma3

32 | 4

1.47 ГБ

В этой теме нет новых непрочитанных сообщений. Бадди едет на запад / Buddy goes west [Вестерн, комедия, 1981] DVDRip, Avo

salma3

12 | 5

1.38 ГБ

В этой теме нет новых непрочитанных сообщений. Mutagen - Суровая Реальность Обыденной Жизни [2010, Punk, MP3]

PriZraK

0 | 1

101.78 МБ

В этой теме нет новых непрочитанных сообщений. В стране / In Country [Драма, мелодрама, комедия, военный, 1989] DVDRip, Dvo

salma3

14 | 4

1.45 ГБ

В этой теме нет новых непрочитанных сообщений. Black Country Communion - Afterglow [2012, Hard Rock, Blues Rock, MP3]

PriZraK

1 | 2

133.18 МБ

В этой теме нет новых непрочитанных сообщений. Rain - Mexican Way [2013,Hard Rock,Acoustic Rock,Country,MP3]

PriZraK

0 | 1

114.02 МБ

В этой теме нет новых непрочитанных сообщений. Bourbon Boys - Shotguns, Trucks & Cattle [2013,Hard Rock,Rock-n-Roll,Country,MP3]

PriZraK

0 | 1

94.08 МБ


Начать новую тему Ответить на тему  [ 1 сообщение ] 




Для Мосгорсуда, Роскомнадзора и рекламодателей:: mosgorsud-torrent[собачка]yandex.ru