Торрент файл
скачать торрент магнет ссылка Добавлен: 10 фев 2013, 18:56
Размер: 1.46 ГБ
Сидеров: 0
Личеров: 2
Статус: (salma3)
Автор

СообщениеДобавлено: 10 фев 2013, 18:56 

Не в сети
Супермодератор
Аватара пользователя
Дата регистрации:
15 фев 2012, 16:44
Возраст: 28
Спасибо: 6569 / 2137
Сообщения: 43777
«You only really know what you have when your'e about to lose it.»


Страна: Гонконг
Жанр:боевик, криминал
Год выпуска: 2005
Продолжительность: 01:40:21
Перевод: Профессиональный (многоголосый, закадровый)
Оригинальная аудиодорожка: нет
Cубтитры: нет
Режиссер: Бенни Чан / Benny Chan
В ролях: Аарон Квок, Экин Чэн, Дэниэл Ву, Анджелика Ли, Нин Цзин, Жан Ламб, Ю Рон Гуан, Галлен Ло, Томми Юэнь, Сэмюэл Пэнг...

Описание: У этих трех парней явно нет ничего общего: полицейский-неудачник Суен, который уже 10 лет ищет свою пропавшую невесту; безбашенный наемный убийца по кличке Кокс, вечно работающий на грани фола; и профессиональный адвокат То Хоу, весьма избирательно подходящий к нормам закона. Между ними не может быть ничего общего, но судьба сводит их вместе, делая развитие событий совершенно непредсказуемым…



Качество видео: DVDRip [DVD9 R5]
Формат видео: AVI
Видео: 720x304 (2.35:1), XViD1686 Кбит/сек23,976 fps / Бит/(Пиксели*Кадры): 0.321
Аудио: AC3 Dolby AudioRussian384 kbps5.1 / 48 kHz


Общее
Полное имя: Otklonenie.ot.normy.2005.P.DVDRip_[Youtracker]_by_avproh.avi
Формат: AVI
Формат/Информация: Audio Video Interleave
Размер файла: 1,46 Гбайт
Продолжительность: 1 ч. 40 м.
Общий поток: 2079 Кбит/сек
Программа кодирования: VirtualDubMod 1.5.10.3 | http://www.virtualdub-fr.org || (build 2550/release)
Библиотека кодирования: VirtualDubMod build 2550/release

Видео
Идентификатор: 0
Формат: MPEG-4 Visual
Профиль формата: Advanced Simple@L5
Параметр BVOP формата: 1
Параметр QPel формата: Нет
Параметр GMC формата: Без точки перехода
Параметр матрицы формата: Выборочная
Идентификатор кодека: XVID
Идентификатор кодека/Подсказка: XviD
Продолжительность: 1 ч. 40 м.
Битрейт: 1686 Кбит/сек
Ширина: 720 пикселей
Высота: 304 пикселя
Соотношение сторон: 2,35:1
Частота кадров: 23,976 кадра/сек
Цветовое пространство: YUV
Субдискретизация насыщенности: 4:2:0
Битовая глубина: 8 бит
Тип развёртки: Прогрессивная
Метод сжатия: С потерями
Бит/(Пиксели*Кадры): 0.321
Размер потока: 1,18 Гбайт (81%)
Библиотека кодирования: XviD 65

Аудио
Идентификатор: 1
Формат: AC-3
Формат/Информация: Audio Coding 3
Расширение режима: CM (complete main)
Параметр Endianness формата: Big
Идентификатор кодека: 2000
Продолжительность: 1 ч. 40 м.
Вид битрейта: Постоянный
Битрейт: 384 Кбит/сек
Каналы: 6 каналов
Расположение каналов: Front: L C R, Side: L R, LFE
Частота: 48,0 КГц
Битовая глубина: 16 бит
Метод сжатия: С потерями
Размер потока: 276 Мбайт (18%)
Выравнивание: Разделение по промежуткам
Продолжительность промежутка: 42мс. (1,00 видеокадр)
Время предзагрузки промежутка: 500мс.



Раздача от:




реклама партнёра


Вернуться к началу
 Профиль Отправить личное сообщение  
 
   Похожие торренты   Автор   Торрент   Размер 
В этой теме нет новых непрочитанных сообщений. Треугольник / Triangle / Tie saam gok [боевик, драма, приключения, 2007] BDRemux 1080p, Dvo+Avo

salma3

11 | 24

26.22 ГБ

В этой теме нет новых непрочитанных сообщений. Между жизнью и смертью / Sehar [Боевик, драма, криминал, 2005] DVDRip, Mvo

salma3

29 | 15

1.36 ГБ

В этой теме нет новых непрочитанных сообщений. Тот самый человек / The Man [боевик, комедия, криминал, 2005] WEB-DL 720p, Mvo+Dvo+Sub

salma3

143 | 5

3.02 ГБ

В этой теме нет новых непрочитанных сообщений. S.P.L. Звезды судьбы / Saat po long [боевик, триллер, криминал, 2005] HDRip, Mvo

salma3

1271 | 333

1.44 ГБ

В этой теме нет новых непрочитанных сообщений. Дэнни Цепной пес / Danny the Dog [Боевик, Триллер, Драма, Криминал, 2005] BDRip-AVC, Mvo+Dvo+Avo

salma3

39 | 70

2.83 ГБ

В этой теме нет новых непрочитанных сообщений. Сегодня ты умрешь / Today You Die [боевик, триллер, криминал, 2005] BDRip 1080p, Mvo

salma3

61 | 54

9.56 ГБ

В этой теме нет новых непрочитанных сообщений. S.P.L. Звёзды судьбы / Sha po long [боевик, триллер, драма, криминал, 2005] BDRip 720p, Mvo+Dvo+Sub

salma3

217 | 28

4.6 ГБ


Начать новую тему Ответить на тему  [ 1 сообщение ] 




Для Мосгорсуда, Роскомнадзора и рекламодателей:: mosgorsud-torrent[собачка]yandex.ru