Торрент файл
скачать торрент магнет ссылка Добавлен: 09 фев 2013, 23:39
Размер: 1.46 ГБ
Сидеров: 24
Личеров: 2
Статус: (salma3)
Автор

СообщениеДобавлено: 09 фев 2013, 23:39 

Не в сети
Супермодератор
Аватара пользователя
Дата регистрации:
15 фев 2012, 16:44
Возраст: 27
Спасибо: 5131 / 2089
Сообщения: 17376
Страна: США, Германия
Жанр:триллер, драма, криминал
Год выпуска: 2004
Продолжительность: 01:30:38
Перевод: Профессиональный (многоголосый, закадровый)
Оригинальная аудиодорожка: нет
Cубтитры: нет
Режиссер: Питер Жан Брюгге / Pieter Jan Brugge
В ролях: Роберт Редфорд, Хелен Миррен, Уиллем Дефо, Алессандро Нивола, Мэтт Крэвен, Мелисса Сейджмиллер, Венди Крюсон, Ларри Пайн, Дайана Скаруид, Элизабет Руссо...

Описание: Уэйн и Эйлин Хэйес — образцовая американская семья. У них двое прекрасных детей и вполне успешный бизнес, который они поднимали вместе с нуля. Но жизнь уготовила супружеской паре суровое испытание. Однажды Уэйна похищают. Человек, спрятавший его в лесу, обычный обыватель Арнольд Мэк, находящийся на грани отчаяния и уставший от безденежья и нищеты, решил получить большой выкуп…



Качество видео: DVDRip [DVD9 R5]
Формат видео: AVI
Видео: 688x384 (16:9), XViD1844 Кбит/сек25,000 fps / Бит/(Пиксели*Кадры): 0.279
Аудио: AC3 Dolby AudioRussian448 kbps5.1 / 48 kHz


Общее
Полное имя: Raschet.2004.P.DVDRip_[Youtracker]_by_avproh.avi
Формат: AVI
Формат/Информация: Audio Video Interleave
Размер файла: 1,46 Гбайт
Продолжительность: 1 ч. 30 м.
Общий поток: 2301 Кбит/сек
Программа кодирования: VirtualDubMod 1.5.10.3 | http://www.virtualdub-fr.org || (build 2550/release)
Библиотека кодирования: VirtualDubMod build 2550/release

Видео
Идентификатор: 0
Формат: MPEG-4 Visual
Профиль формата: Advanced Simple@L5
Параметр BVOP формата: 1
Параметр QPel формата: Нет
Параметр GMC формата: Без точки перехода
Параметр матрицы формата: Выборочная
Идентификатор кодека: XVID
Идентификатор кодека/Подсказка: XviD
Продолжительность: 1 ч. 30 м.
Битрейт: 1844 Кбит/сек
Ширина: 688 пикселей
Высота: 384 пикселя
Соотношение сторон: 16:9
Частота кадров: 25,000 кадров/сек
Цветовое пространство: YUV
Субдискретизация насыщенности: 4:2:0
Битовая глубина: 8 бит
Тип развёртки: Прогрессивная
Метод сжатия: С потерями
Бит/(Пиксели*Кадры): 0.279
Размер потока: 1,17 Гбайт (80%)
Библиотека кодирования: XviD 65

Аудио
Идентификатор: 1
Формат: AC-3
Формат/Информация: Audio Coding 3
Расширение режима: CM (complete main)
Параметр Endianness формата: Big
Идентификатор кодека: 2000
Продолжительность: 1 ч. 30 м.
Вид битрейта: Постоянный
Битрейт: 448 Кбит/сек
Каналы: 6 каналов
Расположение каналов: Front: L C R, Side: L R, LFE
Частота: 48,0 КГц
Битовая глубина: 16 бит
Метод сжатия: С потерями
Размер потока: 290 Мбайт (19%)
Выравнивание: Разделение по промежуткам
Продолжительность промежутка: 40мс. (1,00 видеокадр)
Время предзагрузки промежутка: 500мс.




Раздача от:




реклама партнёра


Вернуться к началу
 Профиль Отправить личное сообщение  
 
   Похожие торренты   Автор   Торрент   Размер 
В этой теме нет новых непрочитанных сообщений. Расчёт / The Clearing [Триллер, драма, криминал, 2004] BDRip 720p, Mvo+Avo+Sub

salma3

1 | 2

5.31 ГБ

В этой теме нет новых непрочитанных сообщений. Слепой расчет [01-02 из 02] [Криминал, мелодрама, 2014] HDTVRip

Dracon

266 | 38

2.82 ГБ

В этой теме нет новых непрочитанных сообщений. Инкассатор / Le Convoyeur [триллер, драма, криминал, 2004] DVDRip, Mvo

salma3

27 | 5

698.97 МБ

В этой теме нет новых непрочитанных сообщений. Обратимые ошибки / Reversible Errors [Триллер, драма, криминал, экранизация, 2004] DVDRip, Mvo

salma3

15 | 2

1.45 ГБ

В этой теме нет новых непрочитанных сообщений. Слепой расчет [4 из 4] [Драма, мелодрама,2014] SATRip

iopuk60

1 | 2

2.17 ГБ

В этой теме нет новых непрочитанных сообщений. Холодный расчет [01-04 из 04] (Андрей Балашов) [2014, Криминальная драма, SATRip]

Nickolas3435

196 | 9

2.15 ГБ

В этой теме нет новых непрочитанных сообщений. Волк / El Lobo [Триллер, криминал, 2004] DVDRip, Dvo

salma3

79 | 8

2.05 ГБ


Начать новую тему Ответить на тему  [ 1 сообщение ] 




Для Мосгорсуда, Роскомнадзора и рекламодателей:: mosgorsud-torrent[собачка]yandex.ru