Торрент файл
скачать торрент магнет ссылка Добавлен: 09 фев 2013, 20:00
Размер: 1.63 ГБ
Сидеров: 4
Личеров: 2
Статус: (salma3)
Автор

СообщениеДобавлено: 09 фев 2013, 20:00 

Не в сети
Супермодератор
Аватара пользователя
Дата регистрации:
15 фев 2012, 16:44
Возраст: 27
Спасибо: 5135 / 2089
Сообщения: 17405

Страна: США
Жанр: драма
Год выпуска: 1987
Продолжительность: 01:55:09
Перевод: Профессиональный (многоголосый, закадровый) + оригинал (отдельно)
Режиссер: Андрей Кончаловский


В ролях: Джилл Клейбёрг, Барбара Херши, Марта Плимптон, Мерритт Бутрик, Джон Филбин, Дон Суэйзи, Прюитт Тэйлор, Винс Мэр, Уиннингхэм Майкл, Одли Брэд Лелэнд ...


Описание: Журналистка из Нью-Йорка вместе со своей избалованной дочерью летит по заданию редакции в заброшенную местность, окружённую труднопроходимыми болотами, где на островке живёт её двоюродная сестра вместе со своими тремя сыновьями. Четвёртого в семье вспоминать не принято, для них он изгой - он живёт в городе. Для семьи отшельников город - зло. Добровольное заточение началось в незапамятные времена, когда ещё был жив глава семьи, жестокий и своевольный, чей культ в семье продолжается до сих пор. Один из сыновей - физический и психический урод, живущий в заточении в клетке (когда его мать была беременна, отец ударил её в живот).
Между журналисткой и семьёй отшельников с самого начала возникает отчуждение, и постепенно напряжённость нарастает. Попытки журналистки и её дочери «перевоспитать» семью отшельников приводят к тому, что дочь подвергается насилию со стороны урода. С другой стороны, благодаря конфликту оказывается, что семья отшельников далеко не так довольна своим образом жизни, как казалось поначалу - просто они не видят выхода, боятся города и в то же время презирают городских бездельников, неумеющих выжить в экстремальных условиях. В конце концов, когда журналистка с дочерью собираются отплывать, один из сыновей решает покинуть остров и отправиться в город.




MPAA: R - Лицам до 17 лет обязательно присутствие взрослого


Качество: DVDRip
Контейнер: AVI
Исходник: DVD5
Видео: XviD, 688x288 (2.40:1), 1607 kbps, 25 fps, 0,324 bpp
Аудио 1: AC3 / 2.0 / 48 kHz / 192 kbps / 16 bit | Rus
Аудио 2: AC3 / 2.0 / 48 kHz / 224 kbps / 16 bit | Eng





General
Complete name: E:ВидеоСтыдливые людиСтыдливые люди_1987_DVDRip_MVOСтыдливые_люди_DVDRip_1987_by_Дядя_Лёша_от Youtracker.avi
Format: AVI
Format/Info: Audio Video Interleave
File size: 1.45 GiB
Duration: 1h 55mn
Overall bit rate: 1 809 Kbps
Writing application: VirtualDubMod 1.5.10.3 | http://www.virtualdub-fr.org || (build 2550/release)
Writing library: VirtualDubMod build 2550/release

Video
ID: 0
Format: MPEG-4 Visual
Format profile: Advanced Simple@L5
Format settings, BVOP: 2
Format settings, QPel: No
Format settings, GMC: No warppoints
Format settings, Matrix: Custom
Muxing mode: Packed bitstream
Codec ID: XVID
Codec ID/Hint: XviD
Duration: 1h 55mn
Bit rate: 1 607 Kbps
Width: 688 pixels
Height: 288 pixels
Display aspect ratio: 2.40:1
Frame rate: 25.000 fps
Color space: YUV
Chroma subsampling: 4:2:0
Bit depth: 8 bits
Scan type: Progressive
Compression mode: Lossy
Bits/(Pixel*Frame): 0.324
Stream size: 1.29 GiB (89%)
Writing library: XviD 65

Audio
ID: 1
Format: AC-3
Format/Info: Audio Coding 3
Mode extension: CM (complete main)
Codec ID: 2000
Duration: 1h 55mn
Bit rate mode: Constant
Bit rate: 192 Kbps
Channel(s): 2 channels
Channel positions: Front: L R
Sampling rate: 48.0 KHz
Bit depth: 16 bits
Compression mode: Lossy
Stream size: 158 MiB (11%)
Alignment: Split accross interleaves
Interleave, duration: 40 ms (1.00 video frame)
Interleave, preload duration: 500 ms





реклама партнёра


Вернуться к началу
 Профиль Отправить личное сообщение  
 
   Похожие торренты   Автор   Торрент   Размер 
В этой теме нет новых непрочитанных сообщений. Обыкновенные люди / Ordinary People [драма, 1980] HDTV 1080i, Dvo [НТВ+]

salma3

9 | 4

7.54 ГБ

В этой теме нет новых непрочитанных сообщений. Люди-кошки / Cat People [Триллер, фэнтези, ужасы, драма, 1982] BDRip 1080p, Mvo+Avo+Sub

salma3

4 | 3

9.48 ГБ

В этой теме нет новых непрочитанных сообщений. Люди-кошки / Cat People [триллер, фэнтези, ужасы, драма, мелодрама, 1982] BDRip 720p, Mvo+Avo

salma3

8 | 2

4.86 ГБ

В этой теме нет новых непрочитанных сообщений. Люди, забытые временем / The People That Time Forgot [Фантастика, приключения, драма, 1977] HDTVRip, Dvo

salma3

101 | 14

742.91 МБ

В этой теме нет новых непрочитанных сообщений. Жестокие люди / Fierce People (Гриффин Данн / Griffin Dunne) [2005г., драма, триллер, экранизация, WEB-DLRip-AVC] DUB+DVO

Alfredovich

27 | 2

2.7 ГБ

В этой теме нет новых непрочитанных сообщений. Плохие люди / Bad People [комедия, 2016] WEB-DLRip, Mvo

salma3

928 | 33

1.37 ГБ

В этой теме нет новых непрочитанных сообщений. Безжалостные люди / Ruthless People [Комедия, 1986] WEB-DLRip, Mvo+Avo

salma3

94 | 5

1.46 ГБ


Начать новую тему Ответить на тему  [ 1 сообщение ] 




Для Мосгорсуда, Роскомнадзора и рекламодателей:: mosgorsud-torrent[собачка]yandex.ru