Торрент файл
скачать торрент магнет ссылка Добавлен: 08 фев 2013, 00:36
Размер: 768.38 МБ
Сидеров: 8
Личеров: 1
Автор

СообщениеДобавлено: 08 фев 2013, 00:36 

Не в сети
Супермодератор
Аватара пользователя
Дата регистрации:
15 фев 2012, 16:44
Возраст: 27
Спасибо: 5139 / 2089
Сообщения: 17432

Разоблачение / Disclosure

Год выхода: 1994
Жанр: триллер, драма
Режиссер: Барри Левинсон / Barry Levinson
В ролях: Майкл Дуглас, Деми Мур, Дональд Сазерленд, Кэролайн Гудолл, Рома Маффиа, Дилан Бейкер, Розмари Форсайт, Дэннис Миллер...

О фильме:
Его карьера. Его брак. Его будущее. Все это оказалось под угрозой для сотрудника компании «DigiCom» Тома Сандерса. Он устоял перед напором страсти со стороны начальницы. Но в отместку она обвинила его в сексуальных домогательствах.
И Том, проработавший в этой компании много лет, вынужден защищаться, чтобы не потерять место. Благодаря этой борьбе он попадает в головокружительный кибернетический мир виртуальной реальности в недрах «DigiCom».



Страна: США
Продолжительность: 02:08:20
Перевод: Профессиональный (дублированный) Моствидео

Файл
Кодек: XviD
Качество: HDRip- [BDRip 720p]
Видео: 656x272 (2.40:1), 23.976 fps, 700 Kbps, 0.164 Bits/(Pixel*Frame)
Звук: MP3, 48 KHz, 128 Kbps, 2 channels


General
Complete name: D:Razoblachenie.1994.D.HDRip.XviD.mp3.768mb.avi
Format: AVI
Format/Info: Audio Video Interleave
File size: 768 MiB
Duration: 2h 8mn
Overall bit rate: 837 Kbps
Writing application: VirtualDubMod 1.5.10.2 (build 2540/release)
Writing library: VirtualDubMod build 2540/release

Video
ID: 0
Format: MPEG-4 Visual
Format profile: Advanced Simple@L5
Format settings, BVOP: 1
Format settings, QPel: No
Format settings, GMC: No warppoints
Format settings, Matrix: Custom
Codec ID: XVID
Codec ID/Hint: XviD
Duration: 2h 8mn
Bit rate: 700 Kbps
Width: 656 pixels
Height: 272 pixels
Display aspect ratio: 2.40:1
Frame rate: 23.976 fps
Color space: YUV
Chroma subsampling: 4:2:0
Bit depth: 8 bits
Scan type: Progressive
Compression mode: Lossy
Bits/(Pixel*Frame): 0.164
Stream size: 642 MiB (84%)
Writing library: XviD 1.2.1 (UTC 2008-12-04)

Audio
ID: 1
Format: MPEG Audio
Format version: Version 1
Format profile: Layer 3
Mode: Joint stereo
Codec ID: 55
Codec ID/Hint: MP3
Duration: 2h 8mn
Bit rate mode: Constant
Bit rate: 128 Kbps
Channel(s): 2 channels
Sampling rate: 48.0 KHz
Compression mode: Lossy
Stream size: 118 MiB (15%)
Alignment: Aligned on interleaves
Interleave, duration: 42 ms (1.00 video frame)
Interleave, preload duration: 504 ms





реклама партнёра


Вернуться к началу
 Профиль Отправить личное сообщение  
 
   Похожие торренты   Автор   Торрент   Размер 
В этой теме нет новых непрочитанных сообщений. Разоблачение / Disclosure [Триллер, Драма, 1994] BDRip 720p, Dub+Sub

salma3

29 | 6

6.61 ГБ

В этой теме нет новых непрочитанных сообщений. Разоблачение (Дочь Бога) / Exposed (Деклан Дэйл / Declan Dale) [2016г., драма, HDRip] Sub

Alfredovich

43 | 8

1.36 ГБ

В этой теме нет новых непрочитанных сообщений. Разоблачение / The Xpose [триллер, детектив, 2014] DVDRip, Dvo

salma3

10 | 6

1.46 ГБ

В этой теме нет новых непрочитанных сообщений. Побег / The Getaway [боевик, триллер, драма, 1994] HDRip, Mvo

salma3

0 | 2

1.46 ГБ

В этой теме нет новых непрочитанных сообщений. Разоблачение / The Xpose [Триллер, детектив, 2014] HDTVRip 720p, Dvo+Sub

salma3

37 | 6

1.62 ГБ

В этой теме нет новых непрочитанных сообщений. Подрывники / Blown Away [боевик, триллер, драма, криминал, 1994] HDRip, Mvo

salma3

10 | 2

1.46 ГБ

В этой теме нет новых непрочитанных сообщений. The HAARP Machine - Disclosure [2012, Progressive Metal, MP3]

PriZraK

0 | 1

78.28 МБ


Начать новую тему Ответить на тему  [ 1 сообщение ] 




Для Мосгорсуда, Роскомнадзора и рекламодателей:: mosgorsud-torrent[собачка]yandex.ru