Торрент файл
скачать торрент магнет ссылка Добавлен: 06 фев 2013, 23:43
Размер: 745.91 МБ
Сидеров: 8
Личеров: 3
Статус: (salma3)
Автор

СообщениеДобавлено: 06 фев 2013, 23:43 

Не в сети
Супермодератор
Аватара пользователя
Дата регистрации:
15 фев 2012, 16:44
Возраст: 27
Спасибо: 5121 / 2089
Сообщения: 17282

Денежный поезд / Money Train

Год выхода: 1995
Жанр: боевик, триллер, комедия, криминал
Режиссер: Джозеф Рубин / Joseph Ruben
В ролях: Уэсли Снайпс, Вуди Харрельсон, Дженнифер Лопез, Роберт Блейк, Крис Купер, Джо Грифази, Скотт Сауэрс, Скипп Саддат...

О фильме:
Два сводных брата, белый и чернокожий, с детства мечтавшие лишь об одном — разбогатеть, задумывают дерзкое ограбление. Цель налетчиков — поезд метро, каждую ночь перевозящий миллионы по тоннелям нью — йоркской подземки. Только два обстоятельства останавливают их: они оба полицейские, а поезд находится под личной охраной их босса.

Но соблазн слишком велик, да и вредному боссу, накануне уволившему их со службы, насолить очень уж хочется, и вот — в новогоднюю ночь пара новоявленных грабителей решает осуществить то, о чем они грезили всю жизнь — угнать поезд и стать миллионерами…




Страна: США
Продолжительность: 01:49:58
Перевод: Профессиональный (дублированный)

Файл
Кодек: XviD
Качество: HDRip [BDRip 720p]
Видео: 656x272 (2.40:1),23.976 fps, 811 Kbps, 0.19 Bits/(Pixel*Frame)
Звук: MP3, 48 KHz, 128 Kbps, 2 channels

General
Complete name: D:Denezhnyj.poezd.D.1995.HDRip.XviD.mp3.746mb.avi
Format: AVI
Format/Info: Audio Video Interleave
File size: 746 MiB
Duration: 1h 49mn
Overall bit rate: 948 Kbps
Writing application: VirtualDubMod 1.5.10.2 (build 2540/release)
Writing library: VirtualDubMod build 2540/release

Video
ID: 0
Format: MPEG-4 Visual
Format profile: Advanced Simple@L5
Format settings, BVOP: 1
Format settings, QPel: No
Format settings, GMC: No warppoints
Format settings, Matrix: Custom
Codec ID: XVID
Codec ID/Hint: XviD
Duration: 1h 49mn
Bit rate: 811 Kbps
Width: 656 pixels
Height: 272 pixels
Display aspect ratio: 2.40:1
Frame rate: 23.976 fps
Color space: YUV
Chroma subsampling: 4:2:0
Bit depth: 8 bits
Scan type: Progressive
Compression mode: Lossy
Bits/(Pixel*Frame): 0.190
Stream size: 638 MiB (86%)
Writing library: XviD 1.2.1 (UTC 2008-12-04)

Audio
ID: 1
Format: MPEG Audio
Format version: Version 1
Format profile: Layer 3
Mode: Joint stereo
Mode extension: MS Stereo
Codec ID: 55
Codec ID/Hint: MP3
Duration: 1h 49mn
Bit rate mode: Constant
Bit rate: 128 Kbps
Channel(s): 2 channels
Sampling rate: 48.0 KHz
Compression mode: Lossy
Stream size: 101 MiB (13%)
Alignment: Aligned on interleaves
Interleave, duration: 42 ms (1.00 video frame)
Interleave, preload duration: 504 ms





реклама партнёра


Вернуться к началу
 Профиль Отправить личное сообщение  
 
   Похожие торренты   Автор   Торрент   Размер 
В этой теме нет новых непрочитанных сообщений. Денежный поезд / Money Train [боевик, триллер, драма, 1995] HDRip, Avo [Гаврилов]

salma3

11 | 2

1.47 ГБ

В этой теме нет новых непрочитанных сообщений. Поезд смерти / Death Train [боевик, триллер, 1993] BDRip 1080p, Dvo+Avo

salma3

48 | 6

9.26 ГБ

В этой теме нет новых непрочитанных сообщений. Атомный поезд / Atomic Train [боевик, триллер, драма, 1999] DVDRip, Dvo

salma3

17 | 3

2.06 ГБ

В этой теме нет новых непрочитанных сообщений. Ночной поезд / Призрачный экспресс / Night Train [триллер, детектив, 2009] BDRip, Mvo [Лицензия]

salma3

95 | 7

1.45 ГБ

В этой теме нет новых непрочитанных сообщений. Ночной поезд до Лиссабона / Night Train To Lisbon [Триллер, Мелодрама, Детектив, 2013] BDRip 1080p, Mvo+Sub

Dracon

9 | 3

11.34 ГБ

В этой теме нет новых непрочитанных сообщений. Ночной поезд до Лиссабона / Night Train To Lisbon [Триллер, Мелодрама, Детектив, 2013] BDRip 720p, Mvo+Sub

Dracon

10 | 4

5.03 ГБ

В этой теме нет новых непрочитанных сообщений. Деньги / Money [триллер, криминал, 2016] HDRip, Mvo

salma3

319 | 32

1.37 ГБ


Начать новую тему Ответить на тему  [ 1 сообщение ] 




Для Мосгорсуда, Роскомнадзора и рекламодателей:: mosgorsud-torrent[собачка]yandex.ru