Торрент файл
скачать торрент магнет ссылка Добавлен: 05 фев 2013, 17:57
Размер: 1.13 ГБ
Сидеров: 16
Личеров: 3
Статус: (salma3)
Автор

СообщениеДобавлено: 05 фев 2013, 17:57 

В сети
Супермодератор
Аватара пользователя
Дата регистрации:
15 фев 2012, 16:44
Возраст: 27
Спасибо: 5130 / 2089
Сообщения: 17362

«Когда игра - ваша жизнь, остается надеяться только на удачу»

Ловкие руки / Shade

Год выпуска: 2003
Жанр:Триллер, Криминал
Продолжительность: 01:30:49
Перевод: Профессиональный (многоголосый закадровый)
Режиссер: Дэмиан Ниман
Актеры: Сильвестр Сталлоне, Мелани Гриффит, Стюарт Таунсенд, Тэнди Ньютон, Гэбриел Бирн, Джо Николо, Карл Маццоконе ст., Джордж Товар, Фрэнк Медрано, Джейсон Кербоун, Марк Де Алессандро, Джейми Фокс

Описание фильма:
Сорвать крупный куш в одиночку почти невозможно. Для этого нужна многоходовая афера. Вот и сейчас кое-кто задумал невероятное: большую игру против легендарного Стивенса! Итак, гений махинаций Чарли Миллер, карточный виртуоз Вернон и шулер Ларри Дженнингс встретились не случайно. Для каждого из них обман — и средство и угроза. Ведь в преступном мире цена жизни ничтожно мала по сравнению с суммами чьих-то потерь!..

Качество: DVDRip-AVC
Формат: MKV
Видео: 720x432@1018x432, 1331 Кбит/с, 25,000 кадр/сек
Аудио: AC3, 6 ch, 448 Кбит/с

Автор: ra3wa

Формат: Matroska
Версия формата: Version 2
Размер файла: 1,13 Гбайт
Продолжительность: 1 ч. 30 м.
Общий поток: 1780 Кбит/сек
Дата кодирования: UTC 2011-04-14 20:14:11
Программа кодирования: mkvmerge v3.3.0 ('Language') built on Mar 24 2010 14:59:24
Библиотека кодирования: libebml v0.8.0 + libmatroska v0.9.0

Видео
Идентификатор: 1
Формат: AVC
Формат/Информация: Advanced Video Codec
Профиль формата: High@L4.1
Параметр CABAC формата: Да
Параметр ReFrames формата: 8 кадров
Идентификатор кодека: V_MPEG4/ISO/AVC
Продолжительность: 1 ч. 30 м.
Битрейт: 1331 Кбит/сек
Ширина: 720 пикселей
Высота: 432 пикселя
Соотношение сторон: 2,35:1
Соотношение сторон в оригинале: 2,35:1
Частота кадров: 25,000 кадров/сек
Цветовое пространство: YUV
Субдискретизация насыщенности: 4:2:0
Битовая глубина: 8 бит
Тип развёртки: Прогрессивная
Бит/(Пиксели*Кадры): 0.171
Размер потока: 842 Мбайт (73%)
Библиотека кодирования: x264 core 92 r1510 33d382a
Настройки программы: cabac=1 / ref=8 / deblock=1:-1:-1 / analyse=0x3:0x133 / me=umh / subme=10 / psy=1 / psy_rd=0.80:1.00 / mixed_ref=1 / me_range=64 / chroma_me=0 / trellis=2 / 8x8dct=1 / cqm=0 / deadzone=21,11 / fast_pskip=0 / chroma_qp_offset=1 / threads=3 / sliced_threads=0 / nr=0 / decimate=0 / interlaced=0 / constrained_intra=0 / bframes=7 / b_pyramid=2 / b_adapt=2 / b_bias=0 / direct=3 / wpredb=1 / wpredp=2 / keyint=250 / keyint_min=25 / scenecut=40 / intra_refresh=0 / rc_lookahead=40 / rc=2pass / mbtree=1 / bitrate=1331 / ratetol=1.0 / qcomp=0.60 / qpmin=10 / qpmax=51 / qpstep=4 / cplxblur=20.0 / qblur=0.5 / ip_ratio=1.40 / aq=2:1.00
Default: Да
Forced: Нет

Аудио
Идентификатор: 2
Формат: AC-3
Формат/Информация: Audio Coding 3
Расширение режима: CM (complete main)
Идентификатор кодека: A_AC3
Продолжительность: 1 ч. 30 м.
Вид битрейта: Постоянный
Битрейт: 448 Кбит/сек
Каналы: 6 каналов
Расположение каналов: Front: L C R, Side: L R, LFE
Частота: 48,0 КГц
Битовая глубина: 16 бит
Метод сжатия: С потерями
Размер потока: 291 Мбайт (25%)
Default: Да
Forced: Нет






реклама партнёра


Вернуться к началу
 Профиль Отправить личное сообщение  
 
   Похожие торренты   Автор   Торрент   Размер 
В этой теме нет новых непрочитанных сообщений. Tiffany Shade - Tiffany Shade [2014, Psychedelic Rock, MP3]

PriZraK

0 | 1

72.1 МБ

В этой теме нет новых непрочитанных сообщений. Твои руки на моей заднице / Laisse tes mains sur mes hanches [мелодрама, комедия, 2003] DVDRip, Dvo

salma3

47 | 3

1.46 ГБ

В этой теме нет новых непрочитанных сообщений. Чистые руки / Schone Handen [Триллер, драма, криминал, 2015] HDRip, dvo

Dracon

160 | 6

1.37 ГБ

В этой теме нет новых непрочитанных сообщений. Чистые руки / Schone Handen [Триллер, драма, криминал, 2015] HDRip, Mvo

Dracon

168 | 20

1.37 ГБ

В этой теме нет новых непрочитанных сообщений. В точке пустоты / Ranarna [триллер, боевик, криминал, 2003] DVDRip, Mvo

salma3

4 | 2

1.36 ГБ

В этой теме нет новых непрочитанных сообщений. Во имя мести / На тропе войны / Out for a Kill [Боевик, триллер, криминал, 2003] DVDRip, Mvo

salma3

34 | 14

1.46 ГБ

В этой теме нет новых непрочитанных сообщений. Поедающие лезвия / Razor Eaters [Боевик, триллер, криминал, 2003] DVDRip, Dvo

salma3

99 | 3

1.37 ГБ


Начать новую тему Ответить на тему  [ 1 сообщение ] 




Для Мосгорсуда, Роскомнадзора и рекламодателей:: mosgorsud-torrent[собачка]yandex.ru