Торрент файл
скачать торрент магнет ссылка Добавлен: 05 фев 2013, 09:24
Размер: 1.46 ГБ
Сидеров: 22
Личеров: 2
Автор

СообщениеДобавлено: 05 фев 2013, 09:24 

Не в сети
Зам. Админа
Аватара пользователя
Дата регистрации:
02 дек 2010, 12:39
Спасибо: 12461 / 214
Сообщения: 27968
«Самые опасные волны на планете изменят их навсегда»



Страна: США
Жанр:драма, спорт
Год выпуска: 2012
Продолжительность: 01:51:28

Перевод: Профессиональный (дублированный)
Оригинальная аудиодорожка: нет
Cубтитры: нет

Режиссер: Майкл Эптед / Michael Apted, Кёртис Хэнсон / Curtis Hanson

В ролях: Джерард Батлер, Джонни Уэстон, Элизабет Шу, Эбигейл Спенсер, Ливэн Рамбин, Грег Лонг, Питер Мэл, Зэк Уормхудт, Девин Криттенден, Тейлор Хэндли...

Описание:
Серфинг — спорт королей. Не каждый сможет справиться с огромными волнами у побережья Калифорнии. Их называют Мавериками, они достигают 25 метров в высоту. Хессон не раз покорял стихию, но не раскрыл своего секрета никому. Он дал обещание любимой женщине — больше не рисковать жизнью. Но смелость юного Джея подкупила Хессона. Смогут ли они, глядя смерти в лицо, удержаться на гребне волны?






Качество видео: DVDRip [DVD9 R5]
Формат видео: AVI

Видео: 720x384 (1.85:1), XViD1415 Кбит/сек25,000 fps / Бит/(Пиксели*Кадры): 0.205
Аудио: Dolby Digital AudioRussian448 kbps5.1 / 48 kHz

Раздача от:

Общее
Полное имя: Pokoriteli.voln.2012.D.DVDRip_[Youtracker]_by_avproh.avi
Формат: AVI
Формат/Информация: Audio Video Interleave
Размер файла: 1,46 Гбайт
Продолжительность: 1 ч. 51 м.
Общий поток: 1873 Кбит/сек
Программа кодирования: VirtualDubMod 1.5.10.3 | http://www.virtualdub-fr.org || (build 2550/release)
Библиотека кодирования: VirtualDubMod build 2550/release

Видео
Идентификатор: 0
Формат: MPEG-4 Visual
Профиль формата: Advanced Simple@L5
Параметр BVOP формата: 1
Параметр QPel формата: Нет
Параметр GMC формата: Без точки перехода
Параметр матрицы формата: Выборочная
Идентификатор кодека: XVID
Идентификатор кодека/Подсказка: XviD
Продолжительность: 1 ч. 51 м.
Битрейт: 1415 Кбит/сек
Ширина: 720 пикселей
Высота: 384 пикселя
Соотношение сторон: 1,85:1
Частота кадров: 25,000 кадров/сек
Цветовое пространство: YUV
Субдискретизация насыщенности: 4:2:0
Битовая глубина: 8 бит
Тип развёртки: Прогрессивная
Метод сжатия: С потерями
Бит/(Пиксели*Кадры): 0.205
Размер потока: 1,10 Гбайт (76%)
Библиотека кодирования: XviD 65

Аудио
Идентификатор: 1
Формат: AC-3
Формат/Информация: Audio Coding 3
Расширение режима: CM (complete main)
Параметр Endianness формата: Big
Идентификатор кодека: 2000
Продолжительность: 1 ч. 51 м.
Вид битрейта: Постоянный
Битрейт: 448 Кбит/сек
Каналы: 6 каналов
Расположение каналов: Front: L C R, Side: L R, LFE
Частота: 48,0 КГц
Битовая глубина: 16 бит
Метод сжатия: С потерями
Размер потока: 357 Мбайт (24%)
Выравнивание: Разделение по промежуткам
Продолжительность промежутка: 40мс. (1,00 видеокадр)
Время предзагрузки промежутка: 500мс.








реклама партнёра


Вернуться к началу
 Профиль  
 
   Похожие торренты   Автор   Торрент   Размер 
В этой теме нет новых непрочитанных сообщений. Chasing Violets - Outside Heaven [2012, Melodic Rock, AOR, MP3]

PriZraK

0 | 1

155.37 МБ

В этой теме нет новых непрочитанных сообщений. Chasing The Coroner - Sleep When You're Dead [2012, Deathcore, Female Vocal, MP3]

PriZraK

0 | 1

35.78 МБ

В этой теме нет новых непрочитанных сообщений. Погоня за ледниками / Chasing Ice [Документальный, научно-популярный, 2012] BDRip, Avo

salma3

67 | 20

881.8 МБ

В этой теме нет новых непрочитанных сообщений. В погоне за Эми / Chasing Amy [драма, мелодрама, комедия, 1996] BDRip, Dvo

salma3

25 | 3

1.46 ГБ

В этой теме нет новых непрочитанных сообщений. Chasing Dragons – Take Flight for a Firefight [2012, Modern Hard Rock,Alternative Rock, MP3]

PriZraK

0 | 1

92.71 МБ

В этой теме нет новых непрочитанных сообщений. В погоне за Эми / Chasing Amy [драма, мелодрама, комедия, 1997] BDRip 720p, Mvo+Avo+Sub

salma3

27 | 9

9.05 ГБ

В этой теме нет новых непрочитанных сообщений. В погоне за Эми / Chasing Amy [драма, мелодрама, комедия, 1997] BDRip 1080p, Mvo+Avo+Sub

salma3

9 | 7

17.53 ГБ


Начать новую тему Ответить на тему  [ 1 сообщение ] 




Для Мосгорсуда, Роскомнадзора и рекламодателей:: mosgorsud-torrent[собачка]yandex.ru