Торрент файл
скачать торрент магнет ссылка Добавлен: 05 фев 2013, 02:18
Размер: 1.46 ГБ
Сидеров: 16
Личеров: 3
Статус: (salma3)
Автор

СообщениеДобавлено: 05 фев 2013, 02:18 

Не в сети
Супермодератор
Аватара пользователя
Дата регистрации:
15 фев 2012, 16:44
Возраст: 27
Спасибо: 5130 / 2089
Сообщения: 17350


За канатами / Наперекор судьбе / Against the Ropes

Год выхода: 2004
Жанр: Драма, Биография, Спорт
Режиссер: Чарльз С. Даттон
В ролях: Мэг Райан, Омар Эппс, Чарльз Даттон, Тони Шалхуб, Тимоти Дэйли, Джозеф Кортезе, Керри Вашингтон, Шон Белл, Дин МакДермотт, Скай МакКоул Бартусиак

О фильме:
Эта картина основана на реальных событиях и рассказывает о знаменитой женщине-менеджере Джеки Кэллен, сыгравшей важную роль в истории американского бокса. Переехав в Лос-Анджелес после развода с мужем и распрощавшись с прежней жизнью, Джеки решает взяться за Лютера Шоу, хулиганистого «парня из соседнего квартала», сделав из него… боксера международного уровня! Чтобы помочь Шоу стать конкурентом звезд первой величины, неутомимая Джеки объединяется с опытным тренером-пенсионером Феликсом Рейнольдсом. Роль Феликса исполнил Чарльз С. Даттон, который стал также режиссером этой картины.


Страна: США
Продолжительность: 01:46:17
Перевод: Профессиональный (многоголосый закадровый)

Файл
Кодек: Xvid
Качество: DVDRip
Видео: 720x304, 1577 Kbps, 23.976 fps
Звук: AC3, 6ch, 384 Kbps, 48.0 khz
General
Complete name : Za_kanatami.2004.DVDRip.avi
Format : AVI
Format/Info : Audio Video Interleave
File size : 1.46 GiB
Duration : 1h 46mn
Overall bit rate : 1 971 Kbps
Writing application : VirtualDubMod 1.5.10.3 | http://www.virtualdub-fr.org || (build 2550/release)
Writing library : VirtualDubMod build 2550/release

Video
ID : 0
Format : MPEG-4 Visual
Format profile : Advanced Simple@L5
Format settings, BVOP : 1
Format settings, QPel : No
Format settings, GMC : No warppoints
Format settings, Matrix : Custom
Codec ID : XVID
Codec ID/Hint : XviD
Duration : 1h 46mn
Bit rate : 1 577 Kbps
Width : 720 pixels
Height : 304 pixels
Display aspect ratio : 2.35:1
Frame rate : 23.976 fps
Color space : YUV
Chroma subsampling : 4:2:0
Bit depth : 8 bits
Scan type : Progressive
Compression mode : Lossy
Bits/(Pixel*Frame) : 0.301
Stream size : 1.17 GiB (80%)
Writing library : XviD 73

Audio
ID : 1
Format : AC-3
Format/Info : Audio Coding 3
Mode extension : CM (complete main)
Format settings, Endianness : Big
Codec ID : 2000
Duration : 1h 46mn
Bit rate mode : Constant
Bit rate : 384 Kbps
Channel(s) : 6 channels
Channel positions : Front: L C R, Side: L R, LFE
Sampling rate : 48.0 KHz
Bit depth : 16 bits
Compression mode : Lossy
Stream size : 291 MiB (19%)
Alignment : Split accross interleaves
Interleave, duration : 42 ms (1.00 video frame)
Interleave, preload duration : 500 ms



Релиз от: Leon-masl




реклама партнёра


Вернуться к началу
 Профиль Отправить личное сообщение  
 
   Похожие торренты   Автор   Торрент   Размер 
В этой теме нет новых непрочитанных сообщений. Идти к своей судьбе / Musafir [Триллер, боевик, мелодрама, 2004] DVDRip-AVC, Mvo+Sub

salma3

7 | 2

1.45 ГБ

В этой теме нет новых непрочитанных сообщений. Кровавый спорт / Bloodsport [драма, спорт, биография, боевик, 1988] BDRemux 1080p, Mvo

salma3

10 | 2

17.28 ГБ

В этой теме нет новых непрочитанных сообщений. Кровавый спорт / Bloodsport [Боевик, драма, биография, спорт, 1988] BDRip 720p, Mvo+Dvo+3Avo+Sub

salma3

26 | 8

5.97 ГБ

В этой теме нет новых непрочитанных сообщений. Мэри Ком / Mary Kom [Драма, биография, спорт, 2014] DVDRip, Sub

salma3

0 | 3

1.42 ГБ

В этой теме нет новых непрочитанных сообщений. Наперекор себе / I Against I [Триллер, криминал, 2012] DVDRip, Mvo

salma3

37 | 2

1.37 ГБ

В этой теме нет новых непрочитанных сообщений. Поддубный [драма, спорт, биография, 2014] BDRip [Лицензия]

Dracon

6382 | 213

2.18 ГБ

В этой теме нет новых непрочитанных сообщений. Поддубный [драма, спорт, биография, 2014] DVD5 [Лицензия]

Dracon

44 | 7

4.37 ГБ


Начать новую тему Ответить на тему  [ 1 сообщение ] 




Для Мосгорсуда, Роскомнадзора и рекламодателей:: mosgorsud-torrent[собачка]yandex.ru